Welcome Guest ( Log In | Register )

> Thermodon - Demo 1990 [demo] (1990), Thrash/Death Metal
post Nov 19 2014, 12:54:59
Post #1

Serial Uploader
Group Icon
Group: V.I.P
Posts: 37,609
Releases: 35781
From: Lithuania
On Forums: 13 years 1 month
Thanks: 433239 time(s)
Lithuania


(IMG:https://metalarea.org/images/audiocovers/2014_Nov/acov_tid234179_thumb.jpg)

*Artist: Thermodon
*Album: Demo 1990 [demo]
*Year: 1990
*Genre: Thrash/Death Metal
*Country: Poland (IMG:https://metalarea.org/forum/style_images/flags/Poland.png)
*Format: mp3@CBR320kbps
*Size: 51MB

Tracklist:
01. Krwawe Imperium 05:32
02. Narodziny Świata 07:13
03. Piekłorodny Syn 05:09
04. Karabin Maszynowy 00:36
05. Senny Koszmar 02:16
******************************
Total playing time: 20:46

(IMG:https://metalarea.org/images/youtube.png)

Extended info
Tape-rip


Technical info
(IMG:https://metalarea.org/images/spectrogram/2014_Nov/05afffe81b666d1b701ee986c6ad1146.png)
Input File: 03. Piek?orodny Syn.mp3
Channels : 2
Sample Rate : 44100
Precision : 16-bit
Duration : 00:05:09.74 = 13659490 samples = 23230.4 CDDA sectors
File Size : 12.4M
Bit Rate : 320k
Sample Encoding: MPEG audio (layer I, II or III)
Comments :
Title=PiekЕ‚orodny Syn
Artist=Thermodon
Album=Demo
Tracknumber=3/5
Year=1990
Genre=Death Metal



Register


Go to the top of the page
  Insert nick Quick quote
+Quote Post
 
Start new topic
Replies (1 - 2)
post Aug 15 2020, 01:44:48
Post #2

Пять Литров
*****
Group: Металариец
Posts: 477
Releases: 0
On Forums: 9 years 5 days
Thanks: 17 time(s)
Taiwan


please re-do if possible, thanks and cheers (IMG:style_emoticons/default/9.gif)
Go to the top of the page
  Insert nick Quick quote
+Quote Post
post Aug 15 2020, 04:39:30
Post #3

Grind the Human Scum
**********
Group: Металариец
Posts: 1,056
Releases: 18
On Forums: 14 years 6 months
Thanks: 1066 time(s)
Russian Federation


Register


Go to the top of the page
  Insert nick Quick quote
+Quote Post

Reply to this topicStart new topic
2 User(s) are reading this topic (2 Guests and 0 Anonymous Users)
0 Members:

 



- Lo-Fi Version Support form
Copyrights and abuse reports form
Time is now: 4th August 2021 - 13:48:05