Welcome Guest ( Log In | Register )

Объявления

* gmail.com упорно продолжает считать почту с нас "unsolicited" и отбивает в том числе и письма активации, поэтому просьба использовать альтернативные почтовые ящики.
------------
* gmail.com continues reject all mail from us as "unsolicited" (activation mails too) therefore please use alternate mail servers.
> The Hyle - Demo [demo] (2014), Occult Rock/Doom Metal
Jacktheripper666
post Nov 30 2014, 12:16:16
Post #1

Guests team






(IMG:http://metalarea.org/images/audiocovers/2014_Nov/acov_tid234834_thumb.jpg)

*Artist: The Hyle
*Album: Demo [demo]
*Year: 2014
*Genre: Occult Rock/Doom Metal
*Country: Denmark (IMG:http://metalarea.org/forum/style_images/flags/Denmark.png)
*Format: mp3@CBR320kbps
*Size: 68MB

Tracklist:
1. Lucifero / Serpent King 14:05
2. Spiritual Sacrifice / Children of the Divine 15:36
******************************
Total playing time: 29:41



Extended info


Technical info
(IMG:http://metalarea.org/images/spectrogram/2014_Nov/60949687f768409a8f3e749ec1180be2.png)
Input File: 01. Lucifero - Serpent King.mp3
Channels : 2
Sample Rate : 44100
Precision : 16-bit
Duration : 00:14:05.53 = 37287917 samples = 63414.8 CDDA sectors
File Size : 24.4M
Bit Rate : 231k
Sample Encoding: MPEG audio (layer I, II or III)
Comments :
Title=Lucifero/Serpent King
Artist=The Hyle
Album=Demo
Tracknumber=1
Year=2014



Register


Go to the top of the page
  Insert nick Quick quote
+Quote Post
 
Start new topic
Replies (1 - 9)
post Nov 30 2014, 21:50:49
Post #2

Правь статус, ####!111
**************
Group: Металариец
Posts: 56,294
Releases: 1225
On Forums: 15 years 1 month
Thanks: 55372 time(s)
Russian Federation


Большое спасибо! Отменный релиз - именно так, как я и люблю. Гипнотическая, затягивающая в себя музыка. Вот только стиль определён неправильно. Это не оккультный рок, это самый что ни на есть психоделический стоунер дум со всем набором свойственных ему причиндалов - длительной продолжительностью, особенной атмосферой, завораживающим вокалом, выразительными соло, психоделичностью и древностью прошлого века...Ещё одни молодые дарования, новых релизов которых буду с нетерпением ждать...
Go to the top of the page
  Insert nick Quick quote
+Quote Post
post Dec 1 2014, 06:55:00
Post #3

Trickster
Group Icon
Group: V.I.P
Posts: 6,578
Releases: 322
On Forums: 13 years 5 months
Thanks: 15284 time(s)
Russian Federation


Даже я выйду из рид-онли.

Как ты можешь определять оккультный-рок какими-то выразительными муз.средствами бл*ть? Вот объясни мне, пожалуйста. Оккультным может быть хоть что, главное - текста.
Go to the top of the page
  Insert nick Quick quote
+Quote Post
post Dec 1 2014, 09:03:06
Post #4

Правь статус, ####!111
**************
Group: Металариец
Posts: 56,294
Releases: 1225
On Forums: 15 years 1 month
Thanks: 55372 time(s)
Russian Federation


Здесь нет рока.
Go to the top of the page
  Insert nick Quick quote
+Quote Post
Jacktheripper666
post Dec 1 2014, 12:34:52
Post #5

Guests team






По поводу жанра, вот аудиоинтервью
http://witheredhandspodcast.wordpress.com/...de-31-the-hyle/
Go to the top of the page
  Insert nick Quick quote
+Quote Post
post Dec 1 2014, 21:39:57
Post #6

sic
***********
Group: Металариец
Posts: 1,606
Releases: 9
From: Волынь - земля родная, сейчас на Львовщине
On Forums: 17 years 2 weeks
Thanks: 889 time(s)
Ukraine


Да, классно! Выпил сегодня вдоволь пивка и просто проникся, сижу, кайфую!)


Thanks:
Go to the top of the page
  Insert nick Quick quote
+Quote Post
post Dec 2 2014, 05:04:28
Post #7

Trickster
Group Icon
Group: V.I.P
Posts: 6,578
Releases: 322
On Forums: 13 years 5 months
Thanks: 15284 time(s)
Russian Federation


vosmidesijatye, Это всё, аут нах*й. Убирайся
Go to the top of the page
  Insert nick Quick quote
+Quote Post
post Nov 13 2015, 11:00:58
Post #8

Serpent Doom
**************
Group: Металариец
Posts: 2,137
Releases: 655
From: Moscow region
On Forums: 15 years 10 months
Thanks: 12056 time(s)
Russian Federation


Не стянул в своё время, а сейчас прогулялся по сети - нет нигде, и на бк на шару уже не качнуть... Reup pls.
Go to the top of the page
  Insert nick Quick quote
+Quote Post
post Nov 13 2015, 14:16:23
Post #9

Forever Underground
**************
Group: Металариец
Posts: 12,253
Releases: 0
On Forums: 9 years 3 months
Thanks: 19972 time(s)
Unknown


QUOTE(Hroedmar @ Nov 13 2015, 11:00:58) *
...Reup pls.


+ 1 ...please! (IMG:style_emoticons/default/pray.gif)
Go to the top of the page
  Insert nick Quick quote
+Quote Post
post Mar 5 2016, 21:21:11
Post #10

Group: Подсевший
Posts: 11
Releases: 0
On Forums: 9 years 9 months
Thanks: 23 time(s)
Finland


http://www110.zippyshare.com/v/IH4yw3oJ/file.html


Thanks:
Go to the top of the page
  Insert nick Quick quote
+Quote Post

Reply to this topicStart new topic
2 User(s) are reading this topic (2 Guests and 0 Anonymous Users)
0 Members:

 



- Lo-Fi Version Support form
Copyrights and abuse reports form
Time is now: 23rd July 2024 - 05:27:23