Welcome Guest ( Log In | Register )

> Lebensnacht - Syksyn Kuoleminen (2013), Atmospheric Black Metal/Neofolk
post Dec 16 2014, 18:55:24
Post #1

Правь статус, ####!111
**************
Group: Металариец
Posts: 4,790
Releases: 1471
From: Brazil
On Forums: 9 years 3 months
Thanks: 54834 time(s)
Brazil


(IMG:http://metalarea.org/images/audiocovers/2014_Dec/acov_tid235772_thumb.jpg)

*Artist: Lebensnacht
*Album: Syksyn Kuoleminen
*Year: 2013
*Genre: Atmospheric Black Metal/Neofolk
*Country: Germany (IMG:http://metalarea.org/forum/style_images/flags/Germany.png)
*Format: mp3@CBR320kbps
*Size: 95MB

Tracklist:
1. Herbsttag 01:30
2. Welkes Leben 05:33
3. Herbststerben 06:50
4. Weiße Einsamkeit 04:08
5. Lebenswinter 06:57
6. Kuolema 08:57
7. Päättyminen 06:15
8. OH 00:33
******************************
Total playing time: 40:43

Technical info
(IMG:http://metalarea.org/images/spectrogram/2014_Dec/357d46031e84ef6b69dc47542e78cb82.png)
Input File: 04 Wei?e Einsamkeit.mp3
Channels : 2
Sample Rate : 44100
Precision : 16-bit
Duration : 00:04:08.11 = 10941563 samples = 18608.1 CDDA sectors
File Size : 10.1M
Bit Rate : 325k
Sample Encoding: MPEG audio (layer I, II or III)
Comments :
Title=WeiГџe Einsamkeit
Artist=Lebensnacht
Album=Syksyn Kuoleminen
Tracknumber=4
Year=2013



Register


Go to the top of the page
  Insert nick Quick quote
+Quote Post
 
Start new topic
Replies (1 - 2)
post Feb 19 2016, 06:49:50
Post #2

Правь статус, ####!111
**************
Group: Металариец
Posts: 2,793
Releases: 18
From: Eternal darkness
On Forums: 13 years 6 months
Thanks: 7670 time(s)
Russian Federation


Register


Go to the top of the page
  Insert nick Quick quote
+Quote Post
post Apr 8 2021, 14:39:58
Post #3

Правь статус, ####!111
**************
Group: Металариец
Posts: 4,561
Releases: 276
From: MoscoW
On Forums: 14 years 5 months
Thanks: 5112 time(s)
Russian Federation


LEBENSNACHT:


NATURMACHT Productions:
Go to the top of the page
  Insert nick Quick quote
+Quote Post

Reply to this topicStart new topic
1 User(s) are reading this topic (1 Guests and 0 Anonymous Users)
0 Members:

 



- Lo-Fi Version Support form
Copyrights and abuse reports form
Time is now: 14th May 2021 - 18:08:34