Welcome Guest ( Log In | Register )

> 

Здесь релизы с живыми прямыми ссылками на lossless

> Eternal Khan - A Poisoned Psalm (2014), Black/Doom Metal
post Dec 18 2014, 03:50:28
Post #1

Правь статус, ####!111
**************
Group: Металариец
Posts: 26,280
Releases: 18909
From: Г.Харьков
On Forums: 9 years 1 month
Thanks: 376537 time(s)
Unknown


(IMG:http://metalarea.org/images/audiocovers/2014_Dec/acov_tid235847_thumb.jpg)

*Artist: Eternal Khan
*Album: A Poisoned Psalm
*Year: 2014
*Genre: Black/Doom Metal
*Country: United States (IMG:http://metalarea.org/forum/style_images/flags/United%20States.png)
*Format: mp3@CBR320kbps
*Size: 86MB

Tracklist:
1. Bells On The Black Hour
2. Raging Host
3. Undermined And Abandoned
4. The Tower
5. The Black Stork
6. Void Of Light And Reconciliation
7. Into The Twilight Abysses
******************************
Total playing time: 39:27

Preview 1

Technical info
(IMG:http://metalarea.org/images/spectrogram/2014_Dec/c08d2ed7b46019364078fe5a9592e03f.png)
Input File: 03 - Undermined and Abandoned.mp3
Channels : 2
Sample Rate : 44100
Precision : 16-bit
Duration : 00:05:41.19 = 15046655 samples = 25589.5 CDDA sectors
File Size : 13.7M
Bit Rate : 322k
Sample Encoding: MPEG audio (layer I, II or III)
Comments :
Title=Undermined and Abandoned
Artist=Eternal Khan
Album=A Poisoned Psalm
Tracknumber=3/7
Year=2014
Genre=Black Metal
Discnumber=1/1



Register


Go to the top of the page
  Insert nick Quick quote
+Quote Post
 
Start new topic
Replies (1 - 2)
post Apr 8 2021, 06:06:22
Post #2

Два Литра
**
Group: Завсегдатай
Posts: 167
Releases: 0
From: Russian Federation
On Forums: 14 years 9 months
Thanks: 3 time(s)
Russian Federation


Thank you very much, but unfortunately the link is no longer available (IMG:style_emoticons/default/6.gif)
Can anyone help?
Go to the top of the page
  Insert nick Quick quote
+Quote Post
post Apr 12 2021, 10:22:30
Post #3

Group Icon
Group: S-moderation team
Posts: 21,086
Releases: 1443
From: Zagreb
On Forums: 10 years 3 months
Thanks: 97111 time(s)
Croatia


Register
Register


Thanks:
Go to the top of the page
  Insert nick Quick quote
+Quote Post

Reply to this topicStart new topic
1 User(s) are reading this topic (1 Guests and 0 Anonymous Users)
0 Members:

 



- Lo-Fi Version Support form
Copyrights and abuse reports form
Time is now: 12th June 2021 - 21:30:14