Welcome Guest ( Log In | Register )

> 418 - Sacral 418 (2014), Black Metal
post Dec 28 2014, 08:08:30
Post #1

Group: Подсевший
Posts: 10
Releases: 2
On Forums: 11 years 4 months
Thanks: 34 time(s)
Russian Federation


(IMG:http://metalarea.org/images/audiocovers/2014_Dec/acov_tid236339_thumb.png)

*Artist: 418
*Album: Sacral 418
*Year: 2014
*Genre: Black Metal
*Country: Russian Federation (IMG:http://metalarea.org/forum/style_images/flags/Russian%20Federation.png)
*Format: mp3@CBR320kbps
*Size: 64MB

Tracklist:
01. Intro
02. Да, Смерть
03. Серпы, Поднятые В Небо
04. Мать Кали
05. H.R.Giger
06. Одержимы И Больны
07. Salomon's Gate (Beherit Cover)
******************************
Total playing time: 25:59

Technical info
(IMG:http://metalarea.org/images/spectrogram/2014_Dec/d210adf74e3c326ef1d3b64750cf8295.png)
Input File: 5. 418 - H.R.Giger.mp3
Channels : 2
Sample Rate : 48000
Precision : 16-bit
Duration : 00:04:41.88 = 13530384 samples ~ 21141.2 CDDA sectors
File Size : 12.0M
Bit Rate : 340k
Sample Encoding: MPEG audio (layer I, II or III)
Comments :
Title=H.R.Giger
Artist=418
Year=2014
Genre=138



Register


This post has been edited by Абигор: Dec 28 2014, 11:22:02


Go to the top of the page
  Insert nick Quick quote
+Quote Post
 
Start new topic
Replies (1 - 5)
post Dec 28 2014, 17:52:18
Post #2

Пациент наркодиспансера
*******
Group: Металариец
Posts: 769
Releases: 1
From: вращенец
On Forums: 15 years 1 day
Thanks: 214 time(s)
Ukraine


Так концептуально и трушно, что даже качать не хочется.


Thanks:
Go to the top of the page
  Insert nick Quick quote
+Quote Post
post Dec 28 2014, 20:25:14
Post #3

Два Литра
**
Group: Завсегдатай
Posts: 142
Releases: 9
On Forums: 15 years 5 months
Thanks: 79 time(s)
Ukraine


Вместо тысяч слов.

(IMG:style_emoticons/default/facessspalm.png)
Go to the top of the page
  Insert nick Quick quote
+Quote Post
post Dec 28 2014, 21:25:12
Post #4

Leegte
***********
Group: Металариец
Posts: 1,806
Releases: 19
From:
On Forums: 12 years 1 day
Thanks: 2701 time(s)



QUOTE
Серпы, Поднятые В Небо

И Молоты, Опущенные на Землю.
Go to the top of the page
  Insert nick Quick quote
+Quote Post
post Apr 14 2021, 03:24:10
Post #5

Два Литра
**
Group: Завсегдатай
Posts: 192
Releases: 0
On Forums: 3 years 8 months
Thanks: 13 time(s)
United States


Please reupload.
Go to the top of the page
  Insert nick Quick quote
+Quote Post
post Apr 14 2021, 19:22:40
Post #6

Правь статус, ####!111
Group Icon
Group: S-moderation team
Posts: 22,058
Releases: 1443
On Forums: 13 years 1 month
Thanks: 127150 time(s)
Unknown


Register


Go to the top of the page
  Insert nick Quick quote
+Quote Post

Reply to this topicStart new topic
2 User(s) are reading this topic (2 Guests and 0 Anonymous Users)
0 Members:

 



- Lo-Fi Version Support form
Copyrights and abuse reports form
Time is now: 17th April 2024 - 23:59:47