Welcome Guest ( Log In | Register )

 
Reply to this topicStart new topic
> Disloyal - March Or Die (2000), Thrash/Death/Black Metal (D6)
post Dec 29 2014, 13:05:41
Post #1

Serial Uploader
Group Icon
Group: V.I.P
Posts: 38,932
Releases: 37068
From: Lithuania
On Forums: 14 years 3 months
Thanks: 463011 time(s)
Lithuania


(IMG:https://metalarea.org/images/audiocovers/2014_Dec/acov_tid236381_thumb.jpg)

*Artist: Disloyal
*Album: March Or Die
*Year: 2000
*Genre: Thrash/Death/Black Metal
*Country: Slovakia (IMG:https://metalarea.org/forum/style_images/flags/Slovakia.png)
*Format: mp3@CBR320kbps
*Size: 89MB

Tracklist:
01. Beginning Of The End 05:01
02. Blind Horror 05:12
03. Fatal Attraction 04:07
04. Old Testament 03:46
05. White Evil 04:27
06. The Way Of The Desperate 05:52
07. Reason To Kill 02:55
08. Witching Flint 03:37
09. DCLXVI 04:40
******************************
Total playing time: 39:37

(IMG:https://metalarea.org/images/youtube.png)

Technical info
(IMG:https://metalarea.org/images/spectrogram/2014_Dec/4105ff87e8aa9eefa6bd095739432350.png)
Input File: 02. Blind Horror.mp3
Channels : 2
Sample Rate : 44100
Precision : 16-bit
Duration : 00:05:12.33 = 13773577 samples = 23424.5 CDDA sectors
File Size : 12.5M
Bit Rate : 320k
Sample Encoding: MPEG audio (layer I, II or III)
Comments :
Title=Blind Horror
Artist=Disloyal
Album=March or Die
Tracknumber=02
Year=2000



Register


Go to the top of the page
  Insert nick Quick quote
+Quote Post
post Jun 12 2022, 16:27:27    Сейчас играет: Re-up please ;-)
Post #2

Правь статус, ####!111
**************
Group: Металариец
Posts: 2,440
Releases: 0
From: Sofia
On Forums: 14 years 11 months
Thanks: 83 time(s)
Bulgaria


Re-up please (IMG:style_emoticons/default/pray.gif) (IMG:style_emoticons/default/pray.gif)
Go to the top of the page
  Insert nick Quick quote
+Quote Post
post Jun 15 2022, 19:56:19
Post #3

Маньяк
**********
Group: Металариец
Posts: 1,496
Releases: 0
On Forums: 13 years 7 months
Thanks: 523 time(s)
South Korea


Sorry! Can't find an archive, but each track previewable or downloadable at 360 kbps for free if you want to preview or miss some tracks:

Register


[The site has been a bit unstable these days... and I'm not affiliated with the site!]

Also, anyone with their 2004 "Resting Evil"?

Many thanks in advance!
Go to the top of the page
  Insert nick Quick quote
+Quote Post
post Jun 15 2022, 20:31:24
Post #4

Правь статус, ####!111
**************
Group: Металариец
Posts: 2,440
Releases: 0
From: Sofia
On Forums: 14 years 11 months
Thanks: 83 time(s)
Bulgaria


Thanks, buddy ! (IMG:style_emoticons/default/9.gif) (IMG:style_emoticons/default/9.gif)

QUOTE(kimkayoung @ Jun 15 2022, 18:56:19) *
Sorry! Can't find an archive, but each track previewable or downloadable at 360 kbps for free if you want to preview or miss some tracks:



[The site has been a bit unstable these days... and I'm not affiliated with the site!]

Also, anyone with their 2004 "Resting Evil"?

Many thanks in advance!

Go to the top of the page
  Insert nick Quick quote
+Quote Post

Reply to this topicStart new topic
1 User(s) are reading this topic (1 Guests and 0 Anonymous Users)
0 Members:

 



- Lo-Fi Version Support form
Copyrights and abuse reports form
Time is now: 25th September 2022 - 05:20:45