Welcome Guest ( Log In | Register )

Объявления

* gmail.com упорно продолжает считать почту с нас "unsolicited" и отбивает в том числе и письма активации, поэтому просьба использовать альтернативные почтовые ящики.
------------
* gmail.com continues reject all mail from us as "unsolicited" (activation mails too) therefore please use alternate mail servers.
> Total Darkness - Total Darkness [demo] (2010), Death/Doom Metal
post Dec 29 2014, 19:43:15
Post #1

Два Литра
**
Group: Подсевший
Posts: 100
Releases: 89
From: Москва
On Forums: 14 years 4 months
Thanks: 1869 time(s)
Unknown


(IMG:http://metalarea.org/images/audiocovers/2014_Dec/acov_tid236425_thumb.jpg)

*Artist: Total Darkness
*Album: Total Darkness [demo]
*Year: 2010
*Genre: Death/Doom Metal
*Country: United States (IMG:http://metalarea.org/forum/style_images/flags/United%20States.png)
*Format: mp3@CBR320kbps
*Size: 10MB

Tracklist:
01. Crionic Necro-Engorgement
******************************
Total playing time: 4:29

Technical info
(IMG:http://metalarea.org/images/spectrogram/2014_Dec/4726ab0473c74faef3af58ff177066c1.png)
Input File: 01 Crionic Necro-Engorgement.mp3
Channels : 2
Sample Rate : 44100
Precision : 16-bit
Duration : 00:04:29.66 = 11892050 samples = 20224.6 CDDA sectors
File Size : 10.8M
Bit Rate : 320k
Sample Encoding: MPEG audio (layer I, II or III)
Comments :
Title=Crionic Necro-Engorgement
Artist=Total Darkness
Album=Total Darkness
Tracknumber=1
Year=2010
Genre=Death Metal



Register


Go to the top of the page
  Insert nick Quick quote
+Quote Post
 
Start new topic
Replies (1 - 2)
post May 15 2024, 14:38:29
Post #2

Два Литра
**
Group: Завсегдатай
Posts: 133
Releases: 0
On Forums: 2 years 2 months
Thanks: 2 time(s)
Unknown


Please re-up.
thx (IMG:style_emoticons/default/9.gif)
Go to the top of the page
  Insert nick Quick quote
+Quote Post
post May 16 2024, 19:18:19
Post #3

Forever Underground
**************
Group: Металариец
Posts: 12,171
Releases: 0
On Forums: 9 years 1 month
Thanks: 19733 time(s)
Unknown


https://www.youtube.com/watch?v=Wy8_-U4SDdo
Go to the top of the page
  Insert nick Quick quote
+Quote Post

Reply to this topicStart new topic
2 User(s) are reading this topic (2 Guests and 0 Anonymous Users)
0 Members:

 



- Lo-Fi Version Support form
Copyrights and abuse reports form
Time is now: 22nd May 2024 - 10:28:02