Welcome Guest ( Log In | Register )

> Forevers' Fallen Grace - Ascending The Monolith (2015), Progressive/Power Metal (D)
post Jan 2 2015, 19:00:24
Post #1

Правь статус, ####!111
**************
Group: Металариец
Posts: 25,974
Releases: 18630
From: Г.Харьков
On Forums: 8 years 11 months
Thanks: 368898 time(s)
Unknown


(IMG:http://metalarea.org/images/audiocovers/2015_Jan/acov_tid236635_thumb.jpg)

*Artist: Forevers' Fallen Grace
*Album: Ascending The Monolith
*Year: 2015
*Genre: Progressive/Power Metal
*Country: United States (IMG:http://metalarea.org/forum/style_images/flags/United%20States.png)
*Format: mp3@CBR320kbps
*Size: 125MB

Tracklist:
01. Into The Abattoir 06:43
02. Crown The Night 04:35
03. Mausoleum Of Dreams 07:41
04. Iron Will 05:20
05. Suffer Our Sins 06:02
06. Wombshifter 03:53
07. Clarion Of Regret 06:21
08. Anthems Of Triumph And Tragedy 07:17
09. Forever Forgotten 06:50
******************************
Total playing time: 54:42



Technical info
(IMG:http://metalarea.org/images/spectrogram/2015_Jan/7a2823ac55db7526bf4b1b31dcdbe19e.png)
Input File: 02. Crown the Night.mp3
Channels : 2
Sample Rate : 44100
Precision : 16-bit
Duration : 00:04:35.23 = 12137555 samples = 20642.1 CDDA sectors
File Size : 11.1M
Bit Rate : 323k
Sample Encoding: MPEG audio (layer I, II or III)
Comments :
Title=Crown the Night
Artist=Forevers' Fallen Grace
Album=Ascending the Monolith
Tracknumber=2/9
Year=2015



Register


Go to the top of the page
  Insert nick Quick quote
+Quote Post
 
Start new topic
Replies (1 - 3)
post Jan 5 2015, 16:50:19
Post #2

Ъ
**************
Group: Металариец
Posts: 10,574
Releases: 9
On Forums: 12 years 3 months
Thanks: 2166 time(s)
Sweden


Есть приятные моменты, но после двух треков с превью качать не захотелось, ибо гораздо больше неприятных.
Go to the top of the page
  Insert nick Quick quote
+Quote Post
post Apr 8 2021, 18:23:52
Post #3

threat
******
Group: Металариец
Posts: 520
Releases: 0
On Forums: 14 years 8 months
Thanks: 36 time(s)
Turkey


can you renew the link
Go to the top of the page
  Insert nick Quick quote
+Quote Post
post Apr 11 2021, 09:50:47
Post #4

Group Icon
Group: S-moderation team
Posts: 20,603
Releases: 1443
From: Zagreb
On Forums: 10 years 2 months
Thanks: 94446 time(s)
Croatia


Register


Thanks:
(1) Olethros,
Go to the top of the page
  Insert nick Quick quote
+Quote Post

Reply to this topicStart new topic
1 User(s) are reading this topic (1 Guests and 0 Anonymous Users)
0 Members:

 



- Lo-Fi Version Support form
Copyrights and abuse reports form
Time is now: 5th May 2021 - 23:02:11