Welcome Guest ( Log In | Register )

> Myth Of A Life - Erinyes [ep] (2014), Melodic Death Metal
post Jan 13 2015, 23:34:54
Post #1

Правь статус, ####!111
**************
Group: Металариец
Posts: 25,790
Releases: 18466
From: Г.Харьков
On Forums: 8 years 11 months
Thanks: 364675 time(s)
Unknown


(IMG:http://metalarea.org/images/audiocovers/2015_Jan/acov_tid237534_thumb.jpg)

*Artist: Myth Of A Life
*Album: Erinyes [ep]
*Year: 2014
*Genre: Melodic Death Metal
*Country: United Kingdom (IMG:http://metalarea.org/forum/style_images/flags/United%20Kingdom.png)
*Format: mp3@CBR320kbps
*Size: 40MB

Tracklist:
1. Pull the Trigger 04:52
2. Scourged and Crucified 04:17
3. Erinyes 03:20
4. Murder 04:22
******************************
Total playing time: 16:51



Technical info
(IMG:http://metalarea.org/images/spectrogram/2015_Jan/27abd92dc2701a672b66b342aefe62d8.png)
Input File: Myth of a Life - Erinyes EP - 02 Scourged and Crucified.mp3
Channels : 2
Sample Rate : 44100
Precision : 16-bit
Duration : 00:04:17.62 = 11360910 samples = 19321.3 CDDA sectors
File Size : 10.5M
Bit Rate : 328k
Sample Encoding: MPEG audio (layer I, II or III)
Comments :
Title=Scourged and Crucified
Artist=Myth of a Life
Album=Erinyes EP
Tracknumber=2
Year=2014



Register


Go to the top of the page
  Insert nick Quick quote
+Quote Post
 
Start new topic
Replies (1 - 4)
post Jan 14 2015, 14:26:18
Post #2

Ъ
**************
Group: Металариец
Posts: 10,566
Releases: 9
On Forums: 12 years 3 months
Thanks: 2161 time(s)
Sweden


Слабенько, видать новички.
Go to the top of the page
  Insert nick Quick quote
+Quote Post
post Jun 11 2016, 09:33:58
Post #3

_ - = # Thrashogolic # = - _ ... а давайте поржём все вместе
**************
Group: Металариец
Posts: 21,095
Releases: 4444
From: 404
On Forums: 10 years 10 months
Thanks: 28040 time(s)
Ukraine


Register
Go to the top of the page
  Insert nick Quick quote
+Quote Post
post Feb 17 2021, 08:58:20
Post #4

Девять Литров
*********
Group: Металариец
Posts: 978
Releases: 0
From: Цимлянск
On Forums: 6 years 10 months
Thanks: 263 time(s)
Russian Federation


Обновите ссылку? TNX satanist666


Thanks:
Go to the top of the page
  Insert nick Quick quote
+Quote Post
post Feb 17 2021, 17:16:12
Post #5

Правь статус, ####!111
**************
Group: Металариец
Posts: 4,263
Releases: 161
From: MoscoW
On Forums: 14 years 4 months
Thanks: 4321 time(s)
Russian Federation


Залито на Мыло - 37.5Mb в 320kbps!!!:
Register

(IMG:style_emoticons/default/metaler.gif)


Thanks:
(1) Veggr,
Go to the top of the page
  Insert nick Quick quote
+Quote Post

Reply to this topicStart new topic
1 User(s) are reading this topic (1 Guests and 0 Anonymous Users)
0 Members:

 



- Lo-Fi Version Support form
Copyrights and abuse reports form
Time is now: 19th April 2021 - 11:06:56