Welcome Guest ( Log In | Register )

> Inspiria - Картина Жизни [ep] (2015), Death/Symphonic Metal
post Jan 18 2015, 12:22:59
Post #1

Время Мары
**************
Group: Металариец
Posts: 3,297
Releases: 495
From: Харьков
On Forums: 12 years 11 months
Thanks: 10256 time(s)
Ukraine


(IMG:https://metalarea.org/images/audiocovers/2015_Jan/acov_tid237783_thumb.jpg)

*Artist: Inspiria
*Album: Картина Жизни [ep]
*Year: 2015
*Genre: Death/Symphonic Metal
*Country: Belarus (IMG:https://metalarea.org/forum/style_images/flags/Belarus.png)
*Format: mp3@CBR320kbps
*Size: 57MB

Tracklist:
1. Картина Жизни
2. Иллюзия Свободы
3. Зеркала
4. Власть Огня
5. Симфония Дождя
******************************
Total playing time: 24:55

Technical info
(IMG:https://metalarea.org/images/spectrogram/2015_Jan/03c19812d5448b396fe1342f22ab973f.png)
Input File: 02. Иллюзия свободы.mp3
Channels : 2
Sample Rate : 44100
Precision : 16-bit
Duration : 00:04:20.84 = 11502824 samples = 19562.6 CDDA sectors
File Size : 10.4M
Bit Rate : 320k
Sample Encoding: MPEG audio (layer I, II or III)
Comments :
Title=Èëëþçèÿ ñâîáîäû
Artist=Inspiria
Album=Êàðòèíà æèçíè
Tracknumber=2
Year=2015
Genre=Metal



Register


Go to the top of the page
  Insert nick Quick quote
+Quote Post
 
Start new topic
Replies (1 - 3)
post Jan 19 2015, 10:01:57
Post #2

Четыре Литра
****
Group: Металариец
Posts: 320
Releases: 0
From: Липецк
On Forums: 12 years 10 months
Thanks: 41 time(s)
Russian Federation


(IMG:style_emoticons/default/metaler.gif)


Thanks:
(1) vasilisk,
Go to the top of the page
  Insert nick Quick quote
+Quote Post
post Jan 19 2015, 14:08:02
Post #3

Три Литра
***
Group: Завсегдатай
Posts: 287
Releases: 0
On Forums: 13 years 8 months
Thanks: 55 time(s)
Australia




Ну, ништяк. Превью радует...
Простенько, сочненько и олдскульно местами, с другой стороны творение не лишено печального романтизма-классицизма. Будем качать земель и знакомиться плотнее с творчеством.


Thanks:
(1) vasilisk,
Go to the top of the page
  Insert nick Quick quote
+Quote Post
post Jan 20 2015, 03:46:50
Post #4

Правь статус, ####!111
**************
Group: Металариец
Posts: 2,462
Releases: 12
From: Canada
On Forums: 14 years 11 months
Thanks: 1705 time(s)
Canada


http://vk.com/inspiria
Go to the top of the page
  Insert nick Quick quote
+Quote Post

Reply to this topicStart new topic
2 User(s) are reading this topic (2 Guests and 0 Anonymous Users)
0 Members:

 



- Lo-Fi Version Support form
Copyrights and abuse reports form
Time is now: 18th May 2022 - 13:44:44