Welcome Guest ( Log In | Register )

> Kav - Kav [demo] (2015), Black/Death Metal
post Jan 23 2015, 17:33:04
Post #1

Serial Uploader
Group Icon
Group: V.I.P
Posts: 37,240
Releases: 35410
From: Lithuania
On Forums: 12 years 1 month
Thanks: 421624 time(s)
Lithuania


(IMG:http://metalarea.org/images/audiocovers/2015_Jan/acov_tid238108_thumb.jpg)

*Artist: Kav
*Album: Kav [demo]
*Year: 2015
*Genre: Black/Death Metal
*Country: Germany (IMG:http://metalarea.org/forum/style_images/flags/Germany.png)
*Format: mp3@CBR320kbps
*Size: 30MB

Tracklist:
01. I 01:53
02. II 02:37
03. III 02:11
04. IV 01:32
05. V 04:41
******************************
Total playing time: 12:54




Technical info
(IMG:http://metalarea.org/images/spectrogram/2015_Jan/9cae862a6df8c641a0b75933973cf3fb.png)
Input File: 02. II.mp3
Channels : 2
Sample Rate : 44100
Precision : 16-bit
Duration : 00:02:37.59 = 6949499 samples = 11818.9 CDDA sectors
File Size : 6.44M
Bit Rate : 327k
Sample Encoding: MPEG audio (layer I, II or III)
Comments :
Title=II
Artist=Kav
Album=Kav
Tracknumber=2
Year=2015



Register


Go to the top of the page
  Insert nick Quick quote
+Quote Post
 
Start new topic
Replies (1 - 6)
post Jan 24 2015, 02:02:17
Post #2

добрый доктор
**************
Group: Металариец
Posts: 3,184
Releases: 1083
From: коста-сити
On Forums: 11 years 4 months
Thanks: 19867 time(s)
Russian Federation


интересно... атмосфера гнилья
Go to the top of the page
  Insert nick Quick quote
+Quote Post
post Jan 25 2015, 20:25:19
Post #3

brutalcesar
**************
Group: Металариец
Posts: 17,957
Releases: 67
From: Рязань
On Forums: 11 years 5 months
Thanks: 9821 time(s)
Russian Federation


А я не проникся как-то...
Go to the top of the page
  Insert nick Quick quote
+Quote Post
kav
post Jan 26 2015, 10:30:15
Post #4

Guests team






thank you for the support. many more releases are coming soon.


Thanks:
(1) drbutcher,
Go to the top of the page
  Insert nick Quick quote
+Quote Post
post Feb 3 2019, 22:29:58
Post #5

Ich bin die Trauer menschlich, kommen Sie zu mir und ich werde Ihnen vergelten
**************
Group: Металариец
Posts: 4,073
Releases: 691
From: Koenigsberg
On Forums: 12 years 6 months
Thanks: 11025 time(s)
Russian Federation


Register



Thanks:
(1) kim666,
Go to the top of the page
  Insert nick Quick quote
+Quote Post
post Nov 10 2019, 04:45:43
Post #6

aggresive exumator!
**********
Group: Металариец
Posts: 1,144
Releases: 0
On Forums: 8 years 9 months
Thanks: 42 time(s)
Unknown


reupload please
Go to the top of the page
  Insert nick Quick quote
+Quote Post
post Nov 10 2019, 07:21:09
Post #7

Group Icon
Group: S-moderation team
Posts: 15,719
Releases: 1440
From: Zagreb
On Forums: 9 years 4 months
Thanks: 70794 time(s)
Croatia


Register


Thanks:
Go to the top of the page
  Insert nick Quick quote
+Quote Post

Reply to this topicStart new topic
1 User(s) are reading this topic (1 Guests and 0 Anonymous Users)
0 Members:

 



- Lo-Fi Version Support form
Copyrights and abuse reports form
Time is now: 16th July 2020 - 17:39:23