Welcome Guest ( Log In | Register )

> Ethereal - Opus Aethereum (2015), Symphonic Death/Black Metal (D14)
post Jan 25 2015, 21:13:13
Post #1

Аннигилятор пивА
Group Icon
Group: V.I.P
Posts: 52,360
Releases: 16550
From: Koenigsberg - TILZIT
On Forums: 15 years 4 weeks
Thanks: 367729 time(s)
Russian Federation


(IMG:http://metalarea.org/images/audiocovers/2015_Jan/acov_tid238229_thumb.jpg)

*Artist: Ethereal
*Album: Opus Aethereum
*Year: 2015
*Genre: Symphonic Death/Black Metal
*Country: United Kingdom (IMG:http://metalarea.org/forum/style_images/flags/United%20Kingdom.png)
*Format: mp3@CBR320kbps
*Size: 98MB

Tracklist:
01. Nomicon
02. Overwrite the Archetype
03. Unholy Ungodly
04. Psalm of the Deceiver
05. Devouring the Forsaken
06. Contorted Utopia
07. Aethereum
08. Waking Death
******************************
Total playing time: 40:03




Extended info
NAUT : Vocals -
IYAAN : Rhythm Guitars -
M-Inanz : Lead Guitars -
VOLF : Bass -
MORDRATH : Drums


Technical info
(IMG:http://metalarea.org/images/spectrogram/2015_Jan/99f40a6e09352d6a2adec2b8ecb3ba04.png)
Input File: 02. Overwrite the Archetype.mp3
Channels : 2
Sample Rate : 44100
Precision : 16-bit
Duration : 00:05:47.78 = 15336966 samples = 26083.3 CDDA sectors
File Size : 14.1M
Bit Rate : 325k
Sample Encoding: MPEG audio (layer I, II or III)
Comments :
Title=Overwrite the Archetype
Artist=Ethereal
Album=Opus Aethereum
Tracknumber=2/8
Year=2015



Register


Go to the top of the page
  Insert nick Quick quote
+Quote Post
 
Start new topic
Replies (1 - 6)
post Jan 26 2015, 11:58:46
Post #2

Ъ
**************
Group: Металариец
Posts: 10,650
Releases: 9
On Forums: 12 years 5 months
Thanks: 2170 time(s)
Sweden


Вспомнились Боргиры, но только более прямолинейно, зло, менее симфонично - не моё.
Go to the top of the page
  Insert nick Quick quote
+Quote Post
post Jan 26 2015, 18:12:15
Post #3

Семь Литров
*******
Group: Металариец
Posts: 752
Releases: 0
From: Sweden
On Forums: 12 years 3 months
Thanks: 23 time(s)
Sweden


Thank you.
Go to the top of the page
  Insert nick Quick quote
+Quote Post
post Apr 19 2015, 10:58:07
Post #4

redbird
**
Group: Завсегдатай
Posts: 193
Releases: 4
From: Санкт-Петербург
On Forums: 11 years 7 months
Thanks: 152 time(s)
Russian Federation


Второй раз послушал, неплохо, забираю в проигрыватель, расслушаем-с. (IMG:style_emoticons/default/20.gif) По первым разам нравится, немного спешат, правда, из-за этого всё сумбурно, но мелодии есть, поэтому можно похвалить. (IMG:style_emoticons/default/smile3.gif)
Go to the top of the page
  Insert nick Quick quote
+Quote Post
post Sep 9 2015, 14:34:52
Post #5

***********
Group: Металариец
Posts: 1,559
Releases: 16
From: Москва
On Forums: 14 years 6 months
Thanks: 2211 time(s)
Russian Federation


Register
Go to the top of the page
  Insert nick Quick quote
+Quote Post
post Apr 8 2021, 06:08:25
Post #6

Два Литра
**
Group: Завсегдатай
Posts: 167
Releases: 0
From: Russian Federation
On Forums: 14 years 9 months
Thanks: 3 time(s)
Russian Federation


Thank you very much, but unfortunately the link is no longer available (IMG:style_emoticons/default/6.gif)
Can anyone help?
Go to the top of the page
  Insert nick Quick quote
+Quote Post
post Apr 12 2021, 12:24:54
Post #7

Group Icon
Group: S-moderation team
Posts: 21,195
Releases: 1443
From: Zagreb
On Forums: 10 years 3 months
Thanks: 97865 time(s)
Croatia


Register


Go to the top of the page
  Insert nick Quick quote
+Quote Post

Reply to this topicStart new topic
1 User(s) are reading this topic (1 Guests and 0 Anonymous Users)
0 Members:

 



- Lo-Fi Version Support form
Copyrights and abuse reports form
Time is now: 25th June 2021 - 10:55:52