Welcome Guest ( Log In | Register )

> Klandestyn & Nebelwerfer & Ulvdalir & Ruin & Мор - Harvest: Bloody Harvest [split] (2014), Black Metal | Black Metal | Black Metal | Black Metal | Black Metal
post Jan 27 2015, 14:48:12
Post #1

the faceless one
Group Icon
Group: S-moderation team
Posts: 9,602
Releases: 1978
On Forums: 15 years 6 months
Thanks: 124051 time(s)
Antarctica


(IMG:http://metalarea.org/images/audiocovers/2015_Jan/acov_tid238340_thumb.jpg)

*Artist: Klandestyn & Nebelwerfer & Ulvdalir & Ruin & Мор
*Album: Harvest: Bloody Harvest [split]
*Year: 2014
*Genre: Black Metal | Black Metal | Black Metal | Black Metal | Black Metal
*Country: Russian Federation (IMG:http://metalarea.org/forum/style_images/flags/Russian%20Federation.png) | Russian Federation (IMG:http://metalarea.org/forum/style_images/flags/Russian%20Federation.png) | Russian Federation (IMG:http://metalarea.org/forum/style_images/flags/Russian%20Federation.png) | Russian Federation (IMG:http://metalarea.org/forum/style_images/flags/Russian%20Federation.png) | Russian Federation (IMG:http://metalarea.org/forum/style_images/flags/Russian%20Federation.png)
*Format: mp3@CBR320kbps
*Size: 182MB

Tracklist:
Klandestyn:
1. Night Ov Bloody Harvest 16:07
Nebelwerfer:
2. Outsiders Call 02:55
3. The Grand Torture 02:26
4. The Last Lie 03:33
5. T.S.K. 02:14
Ulvdalir:
6. World Without End 09:40
7. 666 05:48
Ruin:
8. Trapped 03:20
9. Bonethroat 03:03
10. Fence 03:03
11. Spiny Hug 04:08
12. Tatters 03:24
Мор:
13. Halls Of Oblivion 07:09
14. Flame Of My Soul... Eis 07:21
15. An Iron Avantgarde 06:44
******************************
Total playing time: 1:20:55



Extended info
2CD A5 digibook limited to 111 copies.


Technical info
(IMG:http://metalarea.org/images/spectrogram/2015_Jan/63273b3cd96767780d0d44abc628fdf8.png)
Input File: 01 - Ruin - Trapped.mp3
Channels : 2
Sample Rate : 44100
Precision : 16-bit
Duration : 00:03:20.90 = 8859822 samples = 15067.7 CDDA sectors
File Size : 8.04M
Bit Rate : 320k
Sample Encoding: MPEG audio (layer I, II or III)
Comments :
Title=Ruin - Trapped
Artist=Ruin
Album=Harvest: Bloody Harvest
Tracknumber=1
Genre=2014
Discnumber=2/2



Register

Register


Go to the top of the page
  Insert nick Quick quote
+Quote Post
 
Start new topic
Replies (1 - 4)
post Jan 27 2015, 15:22:29
Post #2

Шесть Литров
******
Group: Металариец
Posts: 649
Releases: 5
From: Роисся
On Forums: 13 years 1 month
Thanks: 866 time(s)
Greenland


Тут всё отлично, за одним исключением - Nebelwerfer, это какой-то ущербный набор клише!

Ruin пожалуй больше остальных понравились!

Что касается Мурманского МОР, их творчество в духе альбома Земля и Кровь, всё-ж больше по душе. Здесь они забацали что-то типа блэк метала, но тож вроде не плохо. На все 100 пока не расслушал. Типа первые впечатления.


Thanks:
Go to the top of the page
  Insert nick Quick quote
+Quote Post
post Jan 29 2015, 05:53:19
Post #3

the faceless one
Group Icon
Group: S-moderation team
Posts: 9,602
Releases: 1978
On Forums: 15 years 6 months
Thanks: 124051 time(s)
Antarctica


Added links by Daemoniacus


Thanks:
Go to the top of the page
  Insert nick Quick quote
+Quote Post
post Mar 2 2015, 00:14:31
Post #4

Group: Подсевший
Posts: 42
Releases: 0
From: Москва
On Forums: 15 years 6 months
Thanks: 102 time(s)
Russian Federation


Register


Go to the top of the page
  Insert nick Quick quote
+Quote Post
post Jul 8 2015, 21:35:45
Post #5

И всё в тебе, И ты — во всём
**************
Group: Металариец
Posts: 8,467
Releases: 13
On Forums: 14 years 3 months
Thanks: 4308 time(s)
Unknown


порадовал сплит. злобонасыщенно.
Go to the top of the page
  Insert nick Quick quote
+Quote Post

Reply to this topicStart new topic
1 User(s) are reading this topic (1 Guests and 0 Anonymous Users)
0 Members:

 



- Lo-Fi Version Support form
Copyrights and abuse reports form
Time is now: 3rd March 2024 - 10:50:09