Welcome Guest ( Log In | Register )

> Beaten To Death - Dødsfest! (2013), Death Metal/Grindcore
post Feb 10 2015, 12:42:00
Post #1

Serial Uploader
Group Icon
Group: V.I.P
Posts: 42,412
Releases: 40481
From: Lithuania
On Forums: 15 years 10 months
Thanks: 517372 time(s)
Lithuania


(IMG:https://metalarea.org/images/audiocovers/2015_Feb/acov_tid239283_thumb.jpg)

*Artist: Beaten To Death
*Album: Dødsfest!
*Year: 2013
*Genre: Death Metal/Grindcore
*Country: Norway (IMG:https://metalarea.org/forum/style_images/flags/Norway.png)
*Format: mp3@CBR320kbps
*Size: 87MB

Tracklist:
01. Vulpes Vulpes, Mustela Lutreola, Praedium 01:58
02. The Egg Thrower 01:49
03. Krepsekamp 01:19
04. True Norwegian Internet Metal Warrior 01:26
05. Dødsfest! 01:13
06. Erik Og Skrik 00:27
07. Døv, Døvere, Død 02:13
08. Obliteration Of Nekromantheon 02:03
09. Nazi Slippers 01:45
10. The Flesh Prince With Swell Hair 01:33
11. Aspen Hellweek 01:42
12. Vinni Butterfly 01:34
13. Pointless Testament 01:11
14. Winston Churchill 02:21
15. On Running 01:08
16. A Soulless Alarm 02:43
17. 3-2-1, It's On 02:01
18. Cat Olympics 02:01
19. A Word To The Wise 02:14
20. Groundhog Day 02:44
21. Xes And Strokes 02:08
******************************
Total playing time: 37:33




(IMG:https://metalarea.org/images/youtube.png)

Extended info
Released on 12" vinyl by Mas-Kina Recordings
Tracks 1-12 are Side A
Tracks 13-21 are Side B, songs taken from album Xes And Strokes


Technical info
(IMG:https://metalarea.org/images/spectrogram/2015_Feb/704cd524cc89962db2b6a78e49522dfa.png)
Input File: 02. The Egg Thrower.mp3
Channels : 2
Sample Rate : 44100
Precision : 16-bit
Duration : 00:01:49.61 = 4833889 samples = 8220.9 CDDA sectors
File Size : 4.39M
Bit Rate : 320k
Sample Encoding: MPEG audio (layer I, II or III)
Comments :
Title=The Egg Thrower
Artist=Beaten to Death
Album=DГёdsfest!
Tracknumber=02
Year=2013



Register


Go to the top of the page
  Insert nick Quick quote
+Quote Post
 
Start new topic
Replies (1 - 2)
post Sep 25 2021, 02:51:33
Post #2

Маньяк
**********
Group: Металариец
Posts: 1,175
Releases: 0
On Forums: 5 years 9 months
Thanks: 46 time(s)
Serbia


PLS REUPLOAD
Go to the top of the page
  Insert nick Quick quote
+Quote Post
post Mar 19 2023, 08:16:56
Post #3

Правь статус, ####!111
**************
Group: Металариец
Posts: 3,302
Releases: 0
On Forums: 15 years 2 months
Thanks: 1629 time(s)
South Korea


QUOTE(Pobelir @ Sep 25 2021, 04:51:33) *
PLS REUPLOAD


The album (320 kbps, FLAC, etc.) is currently downloadable free on 'name your price' basis on their BandCamp page:
Go to the top of the page
  Insert nick Quick quote
+Quote Post

Reply to this topicStart new topic
1 User(s) are reading this topic (1 Guests and 0 Anonymous Users)
0 Members:

 



- Lo-Fi Version Support form
Copyrights and abuse reports form
Time is now: 22nd April 2024 - 03:27:01