Welcome Guest ( Log In | Register )

> Purulent Rites - Infections And Infestations (2015), Death Metal
post Feb 17 2015, 18:04:16
Post #1

Group: Дух
Posts: 3
Releases: 3
On Forums: 11 years 3 months
Thanks: 42 time(s)
Hungary


(IMG:http://metalarea.org/images/audiocovers/2015_Feb/acov_tid239747_thumb.jpg)

*Artist: Purulent Rites
*Album: Infections And Infestations
*Year: 2015
*Genre: Death Metal
*Country: Hungary (IMG:http://metalarea.org/forum/style_images/flags/Hungary.png)
*Format: mp3@CBR320kbps
*Size: 57MB

Tracklist:
1. Infections And Infestations
2. The Festerraiser
3. It's Not Just In Your Head
4. Resurrection Disorder
5. Rope, Scalpel, Torch
6. To Those Who Obey The Will Of Scum
7. Awakening Is Nigh
8. Basement Secret
9. Tools To Prepare
******************************
Total playing time: 30:30

Technical info
(IMG:http://metalarea.org/images/spectrogram/2015_Feb/d269b9963be7baf500549c07f9ee16f4.png)
Input File: 02. The festerraiser.mp3
Channels : 2
Sample Rate : 44100
Precision : 16-bit
Duration : 00:03:00.40 = 7955684 samples = 13530.1 CDDA sectors
File Size : 6.02M
Bit Rate : 267k
Sample Encoding: MPEG audio (layer I, II or III)
Comments :
Title=The festerraiser
Artist=Purulent Rites
Album=Infections and infestations



Register


This post has been edited by Абигор: Feb 17 2015, 19:49:01


Go to the top of the page
  Insert nick Quick quote
+Quote Post
 
Start new topic
Replies (1 - 8)
post Feb 18 2015, 07:14:35
Post #2

hearer & reader
**************
Group: Металариец
Posts: 9,992
Releases: 178
From: Moscow
On Forums: 14 years 2 months
Thanks: 11486 time(s)
Russian Federation




Олдскул. Серый, тусклый и нудный.
Go to the top of the page
  Insert nick Quick quote
+Quote Post
post Feb 18 2015, 10:47:35
Post #3

ME[ta]LLOMAN
**************
Group: Металариец
Posts: 5,020
Releases: 3
From: Avdeyevka
On Forums: 15 years 7 months
Thanks: 2072 time(s)
Honduras



сумбуръ
Go to the top of the page
  Insert nick Quick quote
+Quote Post
post Feb 18 2015, 11:20:40
Post #4

Четыре Литра
****
Group: Металариец
Posts: 375
Releases: 5
On Forums: 14 years 8 months
Thanks: 306 time(s)
Russian Federation


Серо и уныло. Не меланхолично, а именно уныло. Жаль
Go to the top of the page
  Insert nick Quick quote
+Quote Post
post Feb 18 2015, 11:54:38
Post #5

Два Литра
**
Group: Завсегдатай
Posts: 172
Releases: 2
On Forums: 14 years 2 months
Thanks: 28 time(s)
Sweden


тут на вокеле чел из my fist knife
Go to the top of the page
  Insert nick Quick quote
+Quote Post
post Feb 18 2015, 12:18:08
Post #6

brutalcesar
**************
Group: Металариец
Posts: 18,277
Releases: 72
From: Рязань
On Forums: 12 years 10 months
Thanks: 10417 time(s)
Russian Federation


Грязно, примитивно, бездушно.
И такое имеет право быть!!


Thanks:
Go to the top of the page
  Insert nick Quick quote
+Quote Post
post Mar 1 2015, 21:22:36
Post #7

Правь статус, ####!111
**************
Group: Металариец
Posts: 49,581
Releases: 893
On Forums: 12 years 6 months
Thanks: 45608 time(s)
Russian Federation


Как сказал однажды Асэриус - вы я смотрю не понимаете в дэт метал. И это как раз сюда. Здесь представлен действительно серый, монотонный, примитивный и унылый среднечастотный старый чёсовый дэт с утробным вокалом. Крайне однообразно. Но! Это то и придаёт изюминку релизу, который заметно выделяется на фоне массы дэтухи своей первобытной атрэндовостью. Венгры просто молодцы большие! Советую!


Thanks:
(1) luxxul,
Go to the top of the page
  Insert nick Quick quote
+Quote Post
post Mar 27 2015, 18:08:16
Post #8

Три Литра
***
Group: Завсегдатай
Posts: 230
Releases: 0
From: GREAT TARTARIA
On Forums: 10 years 10 months
Thanks: 91 time(s)
Unknown


РЕКОМЕНДАЦИИ!!
PUREFAKKINDEATH!!

ОБЛОЖКА НАПОМНИЛА КУЛЬТОВЫЙ
SARCOFAGO


Thanks:
(1) LVXXVL,
Go to the top of the page
  Insert nick Quick quote
+Quote Post
post Apr 19 2016, 10:17:13
Post #9

Три Литра
***
Group: Завсегдатай
Posts: 230
Releases: 0
From: GREAT TARTARIA
On Forums: 10 years 10 months
Thanks: 91 time(s)
Unknown


НЕ СЛУШАЙТЕ дЕТЕЙ..
ЭТО ОЧЕНЬ КРУТО!
PUREFAKKINDEATH!!


Thanks:
(1) LVXXVL,
Go to the top of the page
  Insert nick Quick quote
+Quote Post

Reply to this topicStart new topic
2 User(s) are reading this topic (2 Guests and 0 Anonymous Users)
0 Members:

 



- Lo-Fi Version Support form
Copyrights and abuse reports form
Time is now: 3rd December 2021 - 05:39:28