Welcome Guest ( Log In | Register )

> 

Здесь релизы с живыми прямыми ссылками на lossless

> Ahamkara - The Embers Of The Stars (2014), Atmospheric Black Metal
post Feb 22 2015, 16:48:06
Post #1

Правь статус, ####!111
**************
Group: Металариец
Posts: 26,049
Releases: 18700
From: Г.Харьков
On Forums: 9 years 5 days
Thanks: 370693 time(s)
Unknown


(IMG:http://metalarea.org/images/audiocovers/2015_Feb/acov_tid240077_thumb.jpg)

*Artist: Ahamkara
*Album: The Embers Of The Stars
*Year: 2014
*Genre: Atmospheric Black Metal
*Country: United Kingdom (IMG:http://metalarea.org/forum/style_images/flags/United%20Kingdom.png)
*Format: mp3@CBR320kbps
*Size: 112MB

Tracklist:
1. Midwinters Hymn 10:08
2. On The Shores Of Defeat 12:42
3. Lamentation Of A Wraith 10:26
4. To Invoke The Stars Themselves 14:19
******************************
Total playing time: 47:35



Technical info
(IMG:http://metalarea.org/images/spectrogram/2015_Feb/159544219c812f058b42b49a32c0d5e5.png)
Input File: 02. Ahamkara - On the Shores of Defeat.mp3
Channels : 2
Sample Rate : 44100
Precision : 16-bit
Duration : 00:12:41.75 = 33593263 samples = 57131.4 CDDA sectors
File Size : 30.5M
Bit Rate : 321k
Sample Encoding: MPEG audio (layer I, II or III)
Comments :
Title=On the Shores of Defeat
Artist=Ahamkara
Album=The Embers of the Stars (Digipak)
Tracknumber=2
Year=2015



Register


Go to the top of the page
  Insert nick Quick quote
+Quote Post
 
Start new topic
Replies (1 - 9)
post Feb 22 2015, 17:10:46
Post #2

Маньяк
**********
Group: Металариец
Posts: 1,116
Releases: 0
On Forums: 10 years 2 days
Thanks: 532 time(s)
Unknown


Awesome! Thank you.

However, they're from the UK, not Sweden. (Newcastle-upon-Tyne to be specific)


Thanks:
Go to the top of the page
  Insert nick Quick quote
+Quote Post
post Feb 22 2015, 17:29:41
Post #3

Правь статус, ####!111
**************
Group: Металариец
Posts: 26,049
Releases: 18700
From: Г.Харьков
On Forums: 9 years 5 days
Thanks: 370693 time(s)
Unknown


Register


Register


Go to the top of the page
  Insert nick Quick quote
+Quote Post
post Feb 22 2015, 20:20:16
Post #4

ME[ta]LLOMAN
**************
Group: Металариец
Posts: 5,005
Releases: 3
From: Avdeyevka
On Forums: 15 years 4 weeks
Thanks: 2050 time(s)
Honduras





Thanks:
Go to the top of the page
  Insert nick Quick quote
+Quote Post
post Feb 24 2015, 06:43:00
Post #5

Правь статус, ####!111
**************
Group: Металариец
Posts: 2,462
Releases: 12
From: Canada
On Forums: 13 years 11 months
Thanks: 1686 time(s)
Canada




Thanks:
(1) qpMM,
Go to the top of the page
  Insert nick Quick quote
+Quote Post
post Mar 10 2015, 19:06:25
Post #6

Black is beautiful
***********
Group: Металариец
Posts: 1,851
Releases: 4
On Forums: 9 years 2 months
Thanks: 378 time(s)
Unknown


Wonderful for chilling!
Great Band!
Go to the top of the page
  Insert nick Quick quote
+Quote Post
Jacktheripper666
post Mar 10 2015, 20:43:55
Post #7

Guests team






Очень крутой альбом, особенно последний трек
Go to the top of the page
  Insert nick Quick quote
+Quote Post
post Sep 21 2017, 21:46:39
Post #8

Два Литра
**
Group: Завсегдатай
Posts: 120
Releases: 0
On Forums: 10 years 11 months
Thanks: 72 time(s)
Russian Federation


Перезалейте плиз, на другой обменник.
Go to the top of the page
  Insert nick Quick quote
+Quote Post
post Apr 7 2021, 06:07:33
Post #9

Два Литра
**
Group: Завсегдатай
Posts: 167
Releases: 0
From: Russian Federation
On Forums: 14 years 8 months
Thanks: 3 time(s)
Russian Federation


Thank you very much, but unfortunately the links are no longer available (IMG:style_emoticons/default/6.gif)
Can anyone help?
Go to the top of the page
  Insert nick Quick quote
+Quote Post
post Apr 11 2021, 12:12:50
Post #10

Group Icon
Group: S-moderation team
Posts: 20,786
Releases: 1443
From: Zagreb
On Forums: 10 years 2 months
Thanks: 95274 time(s)
Croatia


Register
Register


Go to the top of the page
  Insert nick Quick quote
+Quote Post

Reply to this topicStart new topic
1 User(s) are reading this topic (1 Guests and 0 Anonymous Users)
0 Members:

 



- Lo-Fi Version Support form
Copyrights and abuse reports form
Time is now: 15th May 2021 - 14:58:57