Welcome Guest ( Log In | Register )

> Blood Work - War For Blood (2013), Death Metal
post Feb 26 2015, 07:46:13
Post #1

Правь статус, ####!111
**************
Group: Металариец
Posts: 6,574
Releases: 6048
From: Lithuania
On Forums: 15 years 7 months
Thanks: 46549 time(s)
Lithuania


(IMG:https://metalarea.org/images/audiocovers/2015_Feb/acov_tid240286_thumb.jpg)

*Artist: Blood Work
*Album: War For Blood
*Year: 2013
*Genre: Death Metal
*Country: Venezuela (IMG:https://metalarea.org/forum/style_images/flags/Venezuela.png)
*Format: mp3@CBR320kbps
*Size: 56MB

Tracklist:
1. War for Blood 02:59
2. Bloody Minutes 03:22
3. World Destruction 02:37
4. Messenger of Destruction 03:27
5. Raining Blood (Slayer cover) 04:14
6. Into the Bloodwork 04:21
7. No Hope No Chance 03:20
******************************
Total playing time: 24:20


(IMG:https://metalarea.org/images/myspace.png)

Technical info
(IMG:https://metalarea.org/images/spectrogram/2015_Feb/4df1363d54db67fd1f8e01ca9aa1bbd4.png)
Input File: 2. Bloody Minutes.mp3
Channels : 2
Sample Rate : 44100
Precision : 16-bit
Duration : 00:03:22.50 = 8930294 samples = 15187.6 CDDA sectors
File Size : 8.10M
Bit Rate : 320k
Sample Encoding: MPEG audio (layer I, II or III)
Comments :
Artist=Blood Work
Album=War For Blood
Year=2013
Genre=9



Register


Go to the top of the page
  Insert nick Quick quote
+Quote Post
 
Start new topic
Replies (1 - 1)
post Nov 17 2021, 16:59:11
Post #2

Литр
*
Group: Подсевший
Posts: 87
Releases: 0
On Forums: 12 years 6 months
Thanks: 6 time(s)
Unknown


Dead link
Go to the top of the page
  Insert nick Quick quote
+Quote Post

Reply to this topicStart new topic
1 User(s) are reading this topic (1 Guests and 0 Anonymous Users)
0 Members:

 



- Lo-Fi Version Support form
Copyrights and abuse reports form
Time is now: 29th May 2022 - 06:46:26