Welcome Guest ( Log In | Register )

> И неформату есть предел.

Рэп/хип-хоп/шансон/поп удаляются. Для них есть свои порталы.

> Apócrýphos - The Prisoners Cinema (2015), Dark Ambient
post Mar 4 2015, 07:20:40
Post #1

Маньяк
**********
Group: Металариец
Posts: 1,024
Releases: 373
On Forums: 9 years 4 months
Thanks: 8548 time(s)
Eritrea


(IMG:http://metalarea.org/images/audiocovers/2015_Mar/acov_tid240726_thumb.jpg)

*Artist: Apócrýphos
*Album: The Prisoners Cinema
*Year: 2015
*Genre: Dark Ambient
*Country: United States (IMG:http://metalarea.org/forum/style_images/flags/United%20States.png)
*Format: mp3@CBR320kbps
*Size: 137MB

Tracklist:
01. Eigengrau 09:06
02. To Dark Cells 08:16
03. Subinterior Figures 05:36
04. Phosphene 06:48
05. Neolithic Hypnagogia 11:09
06. The Furthest Sanctuary 06:35
07. Vestige 07:32
08. The Language Of Isolation 06:21
******************************
Total playing time: 1:01:23



Technical info
(IMG:http://metalarea.org/images/spectrogram/2015_Mar/795ad51a529b3737d439b76359ab876b.png)
Input File: 3. Subinterior Figures.mp3
Channels : 2
Sample Rate : 44100
Precision : 16-bit
Duration : 00:05:36.04 = 14819452 samples = 25203.1 CDDA sectors
File Size : 13.4M
Bit Rate : 320k
Sample Encoding: MPEG audio (layer I, II or III)
Comments :
Title=Subinterior Figures
Artist=ApГіcrГЅphos
Album=The Prisoners Cinema
Tracknumber=03
Year=2015
Genre=Dark ambient;Drone ambient



Register


Go to the top of the page
  Insert nick Quick quote
+Quote Post
 
Start new topic
Replies (1 - 2)
post Mar 8 2015, 22:27:16
Post #2

Dark Ambient Shoujo
**********
Group: Металариец
Posts: 1,246
Releases: 2
On Forums: 11 years 3 months
Thanks: 684 time(s)
Russian Federation


Неплохо. Такой напряженный, звенящий инструментальный дарк эмбиент в лучших традициях классиков жанра.


Thanks:
(1) kefka,
Go to the top of the page
  Insert nick Quick quote
+Quote Post
post Feb 5 2020, 07:53:17
Post #3

Семь Литров
*******
Group: Металариец
Posts: 770
Releases: 0
On Forums: 12 years 5 months
Thanks: 327 time(s)
Belarus


новый выходит
Go to the top of the page
  Insert nick Quick quote
+Quote Post

Reply to this topicStart new topic
1 User(s) are reading this topic (1 Guests and 0 Anonymous Users)
0 Members:

 



- Lo-Fi Version Support form
Copyrights and abuse reports form
Time is now: 2nd April 2020 - 11:00:25