Welcome Guest ( Log In | Register )

Объявления

* gmail.com упорно продолжает считать почту с нас "unsolicited" и отбивает в том числе и письма активации, поэтому просьба использовать альтернативные почтовые ящики.
------------
* gmail.com continues reject all mail from us as "unsolicited" (activation mails too) therefore please use alternate mail servers.
> Heavydeath - Eternal Sleepwalker (2015), Doom/Death Metal
post Mar 5 2015, 20:14:09
Post #1

Правь статус, ####!111
**************
Group: Металариец
Posts: 36,458
Releases: 27186
From: Г.Харьков
On Forums: 12 years 2 months
Thanks: 592659 time(s)
Ukraine


(IMG:http://metalarea.org/images/audiocovers/2015_Mar/acov_tid240843_thumb.jpg)

*Artist: Heavydeath
*Album: Eternal Sleepwalker
*Year: 2015
*Genre: Doom/Death Metal
*Country: Sweden (IMG:http://metalarea.org/forum/style_images/flags/Sweden.png)
*Format: mp3@CBR320kbps
*Size: 124MB

Tracklist:
01. Ascending
02. Road To The Fire
03. Bow Down
04. Eat The Sun
05. Eternal Sleepwalker
06. Heavy As Death
07. Beyond The Riphean Mountains
******************************
Total playing time: 57:21



Technical info
(IMG:http://metalarea.org/images/spectrogram/2015_Mar/c1cbeb1f6a82955208a76ad6e4febb78.png)
Input File: 02. Heavydeath - Road To The Fire.mp3
Channels : 2
Sample Rate : 44100
Precision : 16-bit
Duration : 00:07:26.95 = 19710363 samples = 33521 CDDA sectors
File Size : 17.9M
Bit Rate : 321k
Sample Encoding: MPEG audio (layer I, II or III)
Comments :
Title=Road To The Fire
Artist=Heavydeath
Album=Eternal Sleepwalker
Tracknumber=2
Year=2015



Register


Go to the top of the page
  Insert nick Quick quote
+Quote Post
 
Start new topic
Replies (1 - 5)
post Mar 6 2015, 14:42:19
Post #2

sic
***********
Group: Металариец
Posts: 1,606
Releases: 9
From: Волынь - земля родная, сейчас на Львовщине
On Forums: 17 years 2 weeks
Thanks: 889 time(s)
Ukraine




Thanks:
Go to the top of the page
  Insert nick Quick quote
+Quote Post
post Mar 22 2015, 23:46:10
Post #3

Правь статус, ####!111
**************
Group: Металариец
Posts: 56,294
Releases: 1225
On Forums: 15 years 1 month
Thanks: 55374 time(s)
Russian Federation


Даже не знаю, к какому жанру отнести сий коллектив. Крайне психоделично, протяжно, тянуче. Но классно и затягивающе. Рекомендую.
Go to the top of the page
  Insert nick Quick quote
+Quote Post
post Oct 16 2016, 10:16:06
Post #4

Маньяк
**********
Group: Металариец
Posts: 1,227
Releases: 10
From: Нижегородская губерния
On Forums: 14 years 10 months
Thanks: 2851 time(s)
Russian Federation


Register
Go to the top of the page
  Insert nick Quick quote
+Quote Post
post Sep 28 2019, 01:42:51
Post #5

Литр
*
Group: Подсевший
Posts: 68
Releases: 0
On Forums: 6 years 2 months
Thanks: 5 time(s)
Unknown


re-up please?
Go to the top of the page
  Insert nick Quick quote
+Quote Post
post Sep 28 2019, 06:03:08
Post #6

Правь статус, ####!111
**************
Group: Металариец
Posts: 4,855
Releases: 41
On Forums: 6 years 8 months
Thanks: 15040 time(s)
Unknown


Register


Thanks:
Go to the top of the page
  Insert nick Quick quote
+Quote Post

Reply to this topicStart new topic
2 User(s) are reading this topic (2 Guests and 0 Anonymous Users)
0 Members:

 



- Lo-Fi Version Support form
Copyrights and abuse reports form
Time is now: 23rd July 2024 - 21:20:42