Welcome Guest ( Log In | Register )

> Prowler - Stallions Of Steel (2015), Heavy Metal (D11)
post Mar 7 2015, 14:31:37
Post #1

Serial Uploader
Group Icon
Group: V.I.P
Posts: 37,112
Releases: 35296
From: Lithuania
On Forums: 11 years 11 months
Thanks: 419063 time(s)
Lithuania


(IMG:https://metalarea.org/images/audiocovers/2015_Mar/acov_tid240950_thumb.jpg)

*Artist: Prowler
*Album: Stallions Of Steel
*Year: 2015
*Genre: Heavy Metal
*Country: Germany (IMG:https://metalarea.org/forum/style_images/flags/Germany.png)
*Format: mp3@CBR320kbps
*Size: 110MB

Tracklist:
01. Motorcycle Of Love 04:06
02. Freedom 04:37
03. Mind And Might 04:11
04. Stallions Of Steel 05:20
05. Mexican Story 06:34
06. Out Of The Night 05:22
07. Paranoia 04:33
08. Prowler 04:37
09. A Maiden's Funeral 08:27
******************************
Total playing time: 47:47

(IMG:https://metalarea.org/images/myspace.png)



Technical info
(IMG:https://metalarea.org/images/spectrogram/2015_Mar/3f88ba1c20b1716f68cce8bfcd4f3406.png)
Input File: 02. Freedom.mp3
Channels : 2
Sample Rate : 44100
Precision : 16-bit
Duration : 00:04:37.11 = 12220507 samples = 20783.2 CDDA sectors
File Size : 11.2M
Bit Rate : 323k
Sample Encoding: MPEG audio (layer I, II or III)
Comments :
Title=Freedom
Artist=Prowler
Album=Stallions of Steel
Tracknumber=2/9
Year=2015



Register


Go to the top of the page
  Insert nick Quick quote
+Quote Post
 
Start new topic
Replies (1 - 5)
post Mar 8 2015, 09:57:39
Post #2

Маньяк
**********
Group: Металариец
Posts: 1,228
Releases: 101
From: 56°24′00″ с. ш. 61°56′00″ в. д.
On Forums: 13 years 5 months
Thanks: 2214 time(s)
Russian Federation


Музыка в духе раннего NWOBHM, хороший альбом для любителей. Запись ок.


Thanks:
Go to the top of the page
  Insert nick Quick quote
+Quote Post
post Mar 9 2015, 21:28:23
Post #3

Правь статус, ####!111
**************
Group: Металариец
Posts: 46,407
Releases: 716
On Forums: 10 years 11 months
Thanks: 38903 time(s)
Russian Federation


Товарищ сверху всё правильно описал - добавлю от себя, что материал отличного качества. Достойный, сильный и цепляющий.
Go to the top of the page
  Insert nick Quick quote
+Quote Post
post Jun 7 2016, 10:51:20
Post #4

Четыре Литра
****
Group: Металариец
Posts: 397
Releases: 0
From: германия
On Forums: 11 years 5 months
Thanks: 150 time(s)
Russian Federation


Отличный, мелодичный Хеви Металл !!
Go to the top of the page
  Insert nick Quick quote
+Quote Post
post May 19 2020, 14:14:17
Post #5

Два Литра
**
Group: Завсегдатай
Posts: 123
Releases: 0
On Forums: 11 years 3 weeks
Thanks: 4 time(s)
Russian Federation


any new link?
thanks in advance
Go to the top of the page
  Insert nick Quick quote
+Quote Post
post May 20 2020, 18:15:56
Post #6

Добрый
**************
Group: Металариец
Posts: 3,623
Releases: 0
On Forums: 1 year 10 months
Thanks: 5824 time(s)
Russian Federation


107 mb/320 kbps
Register


Go to the top of the page
  Insert nick Quick quote
+Quote Post

Reply to this topicStart new topic
1 User(s) are reading this topic (1 Guests and 0 Anonymous Users)
0 Members:

 



- Lo-Fi Version Support form
Copyrights and abuse reports form
Time is now: 27th May 2020 - 11:22:29