Welcome Guest ( Log In | Register )

> 

Здесь релизы с живыми прямыми ссылками на lossless

> Mutilated - In Memoriam [best of/compilation] (2013), Death Metal (D6)
post Mar 9 2015, 19:43:20
Post #1

Пять Литров
*****
Group: Металариец
Posts: 454
Releases: 193
On Forums: 13 years 2 months
Thanks: 2389 time(s)
Brazil


(IMG:http://metalarea.org/images/audiocovers/2015_Mar/acov_tid241087_thumb.jpg)

*Artist: Mutilated
*Album: In Memoriam [best of/compilation]
*Year: 2013
*Genre: Death Metal
*Country: France (IMG:http://metalarea.org/forum/style_images/flags/France.png)
*Format: mp3@CBR320kbps
*Size: 189MB

Tracklist:
Disc 1 (12" 33⅓ RPM)
Side A
1. Cabalistic Cryptograms 03:40
2. Disincarnate Souls 02:00
3. Funeral Slumber 07:29
4. Tormented Creation 02:27
5. Al-Azif 02:32
Side B
6. Sorcery 04:45
7. Graves of Rebirth 04:30
8. Millenium Altar 03:22
9. Evil Scriptures 04:18
10. Evil Scriptures (live) 04:25

Disc 2 (12" 33⅓ RPM)
Side A
1. Intro 00:35
2. Tormented Creation 02:40
3. Sorcery 04:55
4. Millenium Altar 04:59
5. The Crown of Death 04:25
6. Funeral Slumber 07:01
Side B
7. Evil Scriptures 04:30
8. Graves of Rebirth 03:44
9. Tormented Creation 02:53
10. The Crown of Death 03:55
11. Evil Scriptures 04:13
******************************
Total playing time: 1:23:18

Extended info
2LP

Live and rehearsal recordings 1988-1993


Technical info
(IMG:http://metalarea.org/images/spectrogram/2015_Mar/814122fd4abf43d281fced5339850856.png)
Input File: A2. Disincarnate Souls (Funeral Side).mp3
Channels : 2
Sample Rate : 44100
Precision : 16-bit
Duration : 00:02:00.88 = 5330940 samples = 9066.22 CDDA sectors
File Size : 4.84M
Bit Rate : 320k
Sample Encoding: MPEG audio (layer I, II or III)
Comments :
Title=Disincarnate Souls (Funeral Side)
Artist=Mutilated
Album=In Memoriam
Tracknumber=02/21
Year=2013
Genre=Death Metal



Register


Go to the top of the page
  Insert nick Quick quote
+Quote Post
 
Start new topic
Replies (1 - 2)
post Jun 13 2019, 20:00:09
Post #2

Правь статус, ####!111
**************
Group: Металариец
Posts: 7,376
Releases: 165
From: URUGUAY
On Forums: 14 years 8 months
Thanks: 21798 time(s)
Uruguay


[Double CD Edition] (2017) 320
Register


Go to the top of the page
  Insert nick Quick quote
+Quote Post
post Apr 7 2021, 14:14:00
Post #3

Два Литра
**
Group: Завсегдатай
Posts: 121
Releases: 0
On Forums: 1 year 2 months
Thanks: 7 time(s)
Unknown


2CD Edition FLAC from the web:

Register


This post has been edited by Borderline1991: Apr 9 2021, 17:16:12
Reason for edit: hide
Go to the top of the page
  Insert nick Quick quote
+Quote Post

Reply to this topicStart new topic
1 User(s) are reading this topic (1 Guests and 0 Anonymous Users)
0 Members:

 



- Lo-Fi Version Support form
Copyrights and abuse reports form
Time is now: 20th June 2021 - 23:33:12