Welcome Guest ( Log In | Register )

Объявления

* gmail.com упорно продолжает считать почту с нас "unsolicited" и отбивает в том числе и письма активации, поэтому просьба использовать альтернативные почтовые ящики.
------------
* gmail.com continues reject all mail from us as "unsolicited" (activation mails too) therefore please use alternate mail servers.
> Recueil Morbide - Morbid Collection (2015), Brutal Death Metal
post Mar 9 2015, 23:25:25
Post #1

Правь статус, ####!111
**************
Group: Металариец
Posts: 36,452
Releases: 27181
From: Г.Харьков
On Forums: 12 years 2 months
Thanks: 592535 time(s)
Ukraine


(IMG:http://metalarea.org/images/audiocovers/2015_Mar/acov_tid241102_thumb.jpg)

*Artist: Recueil Morbide
*Album: Morbid Collection
*Year: 2015
*Genre: Brutal Death Metal
*Country: France (IMG:http://metalarea.org/forum/style_images/flags/France.png)
*Format: mp3@CBR320kbps
*Size: 95MB

Tracklist:
1. Ritual Time 04:18
2. We Harvest What We Sow 02:40
3. Belated Revenge 03:22
4. Chronicle of a Decline Perversions 03:27
5. Chronicle of a Decline Obsessions 03:18
6. Unconsciously 05:39
7. With This Hate 04:06
8. Untolerance to Frustration 02:21
9. Nightmarish Collapse 02:24
10. The Suffering Remains 04:25
11. Travel to See 06:31
******************************
Total playing time: 42:31



Technical info
(IMG:http://metalarea.org/images/spectrogram/2015_Mar/3ef4241a078fdae6329a93326404ba89.png)
Input File: 03 Belated Revenge.mp3
Channels : 2
Sample Rate : 44100
Precision : 16-bit
Duration : 00:03:23.10 = 8956622 samples = 15232.4 CDDA sectors
File Size : 8.13M
Bit Rate : 320k
Sample Encoding: MPEG audio (layer I, II or III)
Comments :
Title=Belated Revenge
Artist=Recueil Morbide
Album=Morbid Collection
Tracknumber=03/11
Year=2015
Genre=Death Metal
Discnumber=1/1



Register


This post has been edited by DarkHorde: Mar 12 2015, 15:15:32


Go to the top of the page
  Insert nick Quick quote
+Quote Post
 
Start new topic
Replies (1 - 5)
post Mar 11 2015, 21:46:45
Post #2

sic
***********
Group: Металариец
Posts: 1,606
Releases: 9
From: Волынь - земля родная, сейчас на Львовщине
On Forums: 17 years 2 weeks
Thanks: 889 time(s)
Ukraine


Да команда то совсем не новая, но вот раньше они играли мощно, тяжело и быстро, с приблекованными кусками. А тут подделка какая-то, тяжести нет, местами мелодэт, интересных идей и ходов нет. В общем порожняк.


Thanks:
Go to the top of the page
  Insert nick Quick quote
+Quote Post
post Apr 22 2015, 18:54:40
Post #3

Правь статус, ####!111
**************
Group: Металариец
Posts: 4,873
Releases: 31
From: Holland
On Forums: 18 years 3 weeks
Thanks: 1980 time(s)
Netherlands


Не вкатило. Может не понял чего, но совсем не пробрало.
Go to the top of the page
  Insert nick Quick quote
+Quote Post
post Apr 22 2015, 19:35:56
Post #4

Шизофреник, немного маньяк
Group Icon
Group: S-moderation team
Posts: 5,650
Releases: 312
From: Moscow, PAULetskaya
On Forums: 18 years 3 weeks
Thanks: 6102 time(s)
Russian Federation


Неужели все пропало? Мне не особо нравился дебютник французов, а вот дальше они очень четкий и вполне себе брутальный материал выдавали на гора, причем год от года лучше и лучше
Этот не слушал пока...
Go to the top of the page
  Insert nick Quick quote
+Quote Post
post Aug 16 2019, 23:31:30
Post #5

Маньяк
**********
Group: Металариец
Posts: 1,175
Releases: 0
On Forums: 6 years 3 days
Thanks: 47 time(s)
Serbia


PLS REUPLOAD
Go to the top of the page
  Insert nick Quick quote
+Quote Post
post Aug 16 2019, 23:37:59
Post #6

Социопат.Маргинал. Мизантроп.Нигилист. Перверзный нарциссист.
**************
Group: Металариец
Posts: 5,571
Releases: 666
From: Город-герой Ленинград
On Forums: 13 years 5 months
Thanks: 6553 time(s)
Russian Federation


Register
Go to the top of the page
  Insert nick Quick quote
+Quote Post

Reply to this topicStart new topic
2 User(s) are reading this topic (2 Guests and 0 Anonymous Users)
0 Members:

 



- Lo-Fi Version Support form
Copyrights and abuse reports form
Time is now: 23rd July 2024 - 07:02:50