Welcome Guest ( Log In | Register )

Объявления

* gmail.com упорно продолжает считать почту с нас "unsolicited" и отбивает в том числе и письма активации, поэтому просьба использовать альтернативные почтовые ящики.
------------
* gmail.com continues reject all mail from us as "unsolicited" (activation mails too) therefore please use alternate mail servers.
> Criminology - Capitalist Destroyer (2015), Brutal Death Metal
post Mar 10 2015, 14:21:38
Post #1

Serial Uploader
Group Icon
Group: V.I.P
Posts: 42,989
Releases: 41047
From: Lithuania
On Forums: 16 years 1 month
Thanks: 527676 time(s)
Lithuania


(IMG:https://metalarea.org/images/audiocovers/2015_Mar/acov_tid241156_thumb.jpg)

*Artist: Criminology
*Album: Capitalist Destroyer
*Year: 2015
*Genre: Brutal Death Metal
*Country: Indonesia (IMG:https://metalarea.org/forum/style_images/flags/Indonesia.png)
*Format: mp3@CBR320kbps
*Size: 48MB

Tracklist:
01. Intro 01:56
02. Justice And War 03:40
03. Capitalist Destroyer 03:29
04. Singgasana Para Pecundang 03:20
05. Mati Berkarat 03:00
06. Hitam Putih (B - U) 03:41
07. Sia Siga Ciduh Jeung Reuhak 03:43
08. Outro 00:49
******************************
Total playing time: 23:38




(IMG:https://metalarea.org/images/youtube.png)

Technical info
(IMG:https://metalarea.org/images/spectrogram/2015_Mar/c80a5eeff668f9d107a9af67dc7b073e.png)
Input File: 04. Singgasana Para Pecundang.mp3
Channels : 2
Sample Rate : 44100
Precision : 16-bit
Duration : 00:03:20.59 = 8845843 samples = 15044 CDDA sectors
File Size : 8.20M
Bit Rate : 327k
Sample Encoding: MPEG audio (layer I, II or III)
Comments :
Title=Singgasana Para Pecundang
Artist=Criminology
Album=Capitalist Destroyer
Tracknumber=4
Genre=Brutal Death Metal



Register


This post has been edited by DarkHorde: Mar 12 2015, 13:23:21


Go to the top of the page
  Insert nick Quick quote
+Quote Post
 
Start new topic
Replies (1 - 2)
post Mar 10 2015, 18:39:29
Post #2

hearer & reader
**************
Group: Металариец
Posts: 10,945
Releases: 234
From: Moscow
On Forums: 16 years 10 months
Thanks: 13710 time(s)
Russian Federation


New Wave of Indochine Death Music (IMG:style_emoticons/default/hmm.gif)
Go to the top of the page
  Insert nick Quick quote
+Quote Post
post Mar 11 2015, 21:40:21
Post #3

sic
***********
Group: Металариец
Posts: 1,606
Releases: 9
From: Волынь - земля родная, сейчас на Львовщине
On Forums: 17 years 2 weeks
Thanks: 889 time(s)
Ukraine


Вроде не так уж плохо, но слишком однообразно и скучно.


Thanks:
(1) Metalass,
Go to the top of the page
  Insert nick Quick quote
+Quote Post

Reply to this topicStart new topic
2 User(s) are reading this topic (2 Guests and 0 Anonymous Users)
0 Members:

 



- Lo-Fi Version Support form
Copyrights and abuse reports form
Time is now: 23rd July 2024 - 07:21:09