Welcome Guest ( Log In | Register )

> Sacrilege B.C. - Demo 1990 [demo] (1990), Thrash Metal (D4)
post Mar 18 2015, 22:20:30
Post #1

Подвал
**************
Group: Металариец
Posts: 14,788
Releases: 8383
From: Far East (Khabarovsk)
On Forums: 11 years 5 months
Thanks: 86959 time(s)
Russian Federation


(IMG:http://metalarea.org/images/audiocovers/2015_Mar/acov_tid241725_thumb.gif)

*Artist: Sacrilege B.C.
*Album: Demo 1990 [demo]
*Year: 1990
*Genre: Thrash Metal
*Country: United States (IMG:http://metalarea.org/forum/style_images/flags/United%20States.png)
*Format: mp3@CBR320kbps
*Size: 43MB

Tracklist:
1. Maggots 05:28
2. Dark Carnival 04:20
3. No Promises 03:58
4. Inspiration 02:47
5. Golden Age Of Decay 02:13
******************************
Total playing time: 18:46

(IMG:http://metalarea.org/images/myspace.png)

Technical info
(IMG:http://metalarea.org/images/spectrogram/2015_Mar/45aa935074ad8c963409a05de28ec93b.png)
Input File: 01-Maggots.mp3
Channels : 2
Sample Rate : 44100
Precision : 16-bit
Duration : 00:05:29.05 = 14510929 samples = 24678.5 CDDA sectors
File Size : 13.2M
Bit Rate : 321k
Sample Encoding: MPEG audio (layer I, II or III)
Comments :
Title=Maggots
Artist=Sacrilege B.C.
Album=Demo
Tracknumber=01
Year=1990
Genre=Thrash Metal



Register


Go to the top of the page
  Insert nick Quick quote
+Quote Post
 
Start new topic
Replies (1 - 1)
post May 16 2020, 08:35:06
Post #2

Подвал
**************
Group: Металариец
Posts: 14,788
Releases: 8383
From: Far East (Khabarovsk)
On Forums: 11 years 5 months
Thanks: 86959 time(s)
Russian Federation


new link:
Register


Thanks:
Go to the top of the page
  Insert nick Quick quote
+Quote Post

Reply to this topicStart new topic
2 User(s) are reading this topic (2 Guests and 0 Anonymous Users)
0 Members:

 



- Lo-Fi Version Support form
Copyrights and abuse reports form
Time is now: 10th July 2020 - 04:17:57