Welcome Guest ( Log In | Register )

> Blind Legion - The Lost Tapes [best of/compilation] (2008), Heavy Metal
post Apr 3 2015, 13:07:46
Post #1

Подвал
**************
Group: Металариец
Posts: 16,113
Releases: 9224
From: Far East (Khabarovsk)
On Forums: 12 years 4 months
Thanks: 104068 time(s)
Russian Federation


(IMG:http://metalarea.org/images/audiocovers/2015_Apr/acov_tid242767_thumb.jpg)

*Artist: Blind Legion
*Album: The Lost Tapes [best of/compilation]
*Year: 2008
*Genre: Heavy Metal
*Country: United States (IMG:http://metalarea.org/forum/style_images/flags/United%20States.png)
*Format: mp3@CBR320kbps
*Size: 104MB

Tracklist:
1. Much Too Fast 03:23
2. What I Got 03:26
3. Darkness Falls 06:03
4. Living A Nightmare 04:26
5. Blessed In The Night 04:33
6. Fires In Your Cities 04:36
7. Necromancer 07:02
8. Der Totentanz 03:43
9. In Peace 05:29
10. Nice Guys Finish Last 03:12
11. Used To Be Blind 05:17
12. Blitzkrieg 04:29
******************************
Total playing time: 55:39

Extended info
This was band from Albany, New York (started as Blitzkrieg and Legion (later)).
Compilation released by Blood & Iron Records consist of:
tracks 1-4 recorded summer of 1985.
tracks 5-9 recorded summer of 1986.
tracks 10-11 from the 7" single May 1984.
track 12 December 1983.


Technical info
(IMG:http://metalarea.org/images/spectrogram/2015_Apr/fe0c2853c35c99121532332fbd0d9ff8.png)
Input File: 01-Much Too Fast.mp3
Channels : 2
Sample Rate : 44100
Precision : 16-bit
Duration : 00:03:23.76 = 8985684 samples = 15281.8 CDDA sectors
File Size : 8.16M
Bit Rate : 320k
Sample Encoding: MPEG audio (layer I, II or III)
Comments :
Title=Much Too Fast
Artist=Blind Legion (USA, NY)
Album=The Lost Tapes
Tracknumber=01
Year=2008
Genre=Heavy Metal



Register


Go to the top of the page
  Insert nick Quick quote
+Quote Post
 
Start new topic
Replies (1 - 3)
post Nov 13 2019, 02:53:23
Post #2

Три Литра
***
Group: Завсегдатай
Posts: 275
Releases: 0
On Forums: 2 years 9 months
Thanks: 12 time(s)
Brazil


Reup please
Go to the top of the page
  Insert nick Quick quote
+Quote Post
post May 2 2021, 13:45:01
Post #3

Три Литра
***
Group: Завсегдатай
Posts: 275
Releases: 0
On Forums: 2 years 9 months
Thanks: 12 time(s)
Brazil


Reup please (IMG:style_emoticons/default/pray.gif)
Go to the top of the page
  Insert nick Quick quote
+Quote Post
post May 4 2021, 09:29:51
Post #4

Group: Подсевший
Posts: 49
Releases: 0
On Forums: 10 years 6 months
Thanks: 9 time(s)
Bulgaria


CBR320kbps
Register


Thanks:
Go to the top of the page
  Insert nick Quick quote
+Quote Post

Reply to this topicStart new topic
2 User(s) are reading this topic (2 Guests and 0 Anonymous Users)
0 Members:

 



- Lo-Fi Version Support form
Copyrights and abuse reports form
Time is now: 18th June 2021 - 00:13:33