Welcome Guest ( Log In | Register )

> Oshiego - Crossing The Bridge Of Siraat (2015), Death/Thrash Metal
post Apr 6 2015, 19:49:36
Post #1

Serial Uploader
Group Icon
Group: V.I.P
Posts: 38,480
Releases: 36627
From: Lithuania
On Forums: 13 years 11 months
Thanks: 453256 time(s)
Lithuania


(IMG:http://metalarea.org/images/audiocovers/2015_Apr/acov_tid242991_thumb.jpg)

*Artist: Oshiego
*Album: Crossing The Bridge Of Siraat
*Year: 2015
*Genre: Death/Thrash Metal
*Country: Singapore (IMG:http://metalarea.org/forum/style_images/flags/Singapore.png)
*Format: mp3@CBR320kbps
*Size: 93MB

Tracklist:
01. Days Of Ignorance 05:24
02. Hypocrisy 03:25
03. The Tree Of Zaqqum 04:22
04. The Field Of Mahsyar 04:40
05. Genocide, Torture, Rapture... 04:45
06. Crossing The Bridge Of Siraat 04:44
07. The Pharaoh System 03:31
08. Inspiration From The Dark 04:47
09. Heathen (Master Cover) 04:20
******************************
Total playing time: 39:58

(IMG:http://metalarea.org/images/myspace.png)


(IMG:http://metalarea.org/images/youtube.png)

Technical info
(IMG:http://metalarea.org/images/spectrogram/2015_Apr/2aa1c1775856629db42946a5ce00a015.png)
Input File: 05. Genocide, Torture, Rapture....mp3
Channels : 2
Sample Rate : 44100
Precision : 16-bit
Duration : 00:04:45.42 = 12586890 samples = 21406.3 CDDA sectors
File Size : 11.5M
Bit Rate : 323k
Sample Encoding: MPEG audio (layer I, II or III)
Comments :
Title=Genocide, Torture, Rapture...
Artist=Oshiego
Album=Crossing the Bridge of Siraat
Tracknumber=5/9
Year=2015



Register


Go to the top of the page
  Insert nick Quick quote
+Quote Post
 
Start new topic
Replies (1 - 2)
post Nov 15 2019, 09:49:05
Post #2

Три Литра
***
Group: Завсегдатай
Posts: 211
Releases: 0
On Forums: 3 years 2 weeks
Thanks: 14 time(s)
Russian Federation


Re-upp, please)
Go to the top of the page
  Insert nick Quick quote
+Quote Post
post Jan 15 2022, 17:17:58
Post #3

Crush! Kill! Destroy!
**************
Group: Металариец
Posts: 5,733
Releases: 15
From: Kaliningrad
On Forums: 14 years 6 months
Thanks: 5429 time(s)
Russian Federation


Залейте плиз!
Go to the top of the page
  Insert nick Quick quote
+Quote Post

Reply to this topicStart new topic
1 User(s) are reading this topic (1 Guests and 0 Anonymous Users)
0 Members:

 



- Lo-Fi Version Support form
Copyrights and abuse reports form
Time is now: 25th May 2022 - 19:37:27