Welcome Guest ( Log In | Register )

> Korium - The Wolf Head Symbol [compilation] (2013), Black Metal
post Apr 8 2015, 11:55:10
Post #1

Правь статус, ####!111
**************
Group: Металариец
Posts: 6,550
Releases: 6029
From: Lithuania
On Forums: 14 years 8 months
Thanks: 46070 time(s)
Lithuania


(IMG:https://metalarea.org/images/audiocovers/2015_Apr/acov_tid243113_thumb.jpg)

*Artist: Korium
*Album: The Wolf Head Symbol [compilation]
*Year: 2013
*Genre: Black Metal
*Country: Slovakia (IMG:https://metalarea.org/forum/style_images/flags/Slovakia.png)
*Format: mp3@CBR320kbps
*Size: 100MB

Tracklist:
1. Symbol vlčej hlavy Part. 1 11:06
2. Symbol vlčej hlavy Part. 2 13:16
3. Vôňa mrazu Part. 1 08:42
4. Vôňa mrazu Part. 2 11:00
******************************
Total playing time: 44:04

(IMG:https://metalarea.org/images/youtube.png)

Technical info
(IMG:https://metalarea.org/images/spectrogram/2015_Apr/65c50f0a11e1482ee6e2eabdc9d9c5c5.png)
Input File: 03 Vona Mrazu Pt.1.mp3
Channels : 2
Sample Rate : 44100
Precision : 16-bit
Duration : 00:08:40.44 = 22951228 samples = 39032.7 CDDA sectors
File Size : 20.8M
Bit Rate : 320k
Sample Encoding: MPEG audio (layer I, II or III)
Comments :
Artist=Korium
Album=The Wolf Head Symbol
Year=2013
Genre=9



Register


Go to the top of the page
  Insert nick Quick quote
+Quote Post
 
Start new topic
Replies (1 - 1)
post Aug 5 2015, 09:21:07
Post #2

Ich bin die Trauer menschlich, kommen Sie zu mir und ich werde Ihnen vergelten
**************
Group: Металариец
Posts: 4,074
Releases: 691
From: Koenigsberg
On Forums: 13 years 5 months
Thanks: 11414 time(s)
Russian Federation


Register


Thanks:
Go to the top of the page
  Insert nick Quick quote
+Quote Post

Reply to this topicStart new topic
1 User(s) are reading this topic (1 Guests and 0 Anonymous Users)
0 Members:

 



- Lo-Fi Version Support form
Copyrights and abuse reports form
Time is now: 12th June 2021 - 22:32:14