Welcome Guest ( Log In | Register )

Объявления

* gmail.com упорно продолжает считать почту с нас "unsolicited" и отбивает в том числе и письма активации, поэтому просьба использовать альтернативные почтовые ящики.
------------
* gmail.com continues reject all mail from us as "unsolicited" (activation mails too) therefore please use alternate mail servers.
> Skyforger - Senprūsija (2015), Pagan/Folk Black Metal
post Apr 13 2015, 18:52:06
Post #1

local
**************
Group: Металариец
Posts: 3,037
Releases: 270
On Forums: 17 years 6 months
Thanks: 8019 time(s)
Unknown


(IMG:http://metalarea.org/images/audiocovers/2015_Apr/acov_tid243385_thumb.jpg)

*Artist: Skyforger
*Album: Senprūsija
*Year: 2015
*Genre: Pagan/Folk Black Metal
*Country: Latvia (IMG:http://metalarea.org/forum/style_images/flags/Latvia.png)
*Format: mp3@CBR320kbps
*Size: 133MB

Tracklist:
1. Ei skīja, skīja 01:22
2. Senprūsija 05:32
3. Sudāvu Jātnieki 04:13
4. Tagad Vai Nekad 05:00
5. Herkus Monte 04:17
6. Rāmava 06:44
7. Lepnums Un Spīts 06:13
8. Divi Brāļi 04:49
9. Melnās Buras 04:49
10. Nekas Nav Aizmirsts 06:50
11. Rituāls 03:15
12. Zem Lietuvas Karogiem 05:07
******************************
Total playing time: 58:11

Technical info
(IMG:http://metalarea.org/images/spectrogram/2015_Apr/8f97a1ca4943c039581c2c359082daf2.png)
Input File: 03 Sudāvu jātnieki (Sudovian Horsemen).mp3
Channels : 2
Sample Rate : 44100
Precision : 16-bit
Duration : 00:04:12.84 = 11150200 samples = 18962.9 CDDA sectors
File Size : 10.1M
Bit Rate : 320k
Sample Encoding: MPEG audio (layer I, II or III)
Comments :
Title=SudДЃvu jДЃtnieki
Artist=Skyforger
Album=SenprЕ«sija
Tracknumber=03
Year=2015
Genre=Pagan/Folk Black Metal



Register


Go to the top of the page
  Insert nick Quick quote
+Quote Post
2 Pages V  < 1 2  
Start new topic
Replies (30 - 35)
post Jul 25 2015, 13:05:57
Post #31

Азъ есн Хаос
***********
Group: Металариец
Posts: 1,699
Releases: 162
From: Россия Москва
On Forums: 17 years 5 months
Thanks: 1831 time(s)
Russian Federation


ЦИТАТА(Лучъ @ Jul 25 2015, 14:40:49) *
О латышских стрелках (IMG:style_emoticons/default/1488.gif)

О тех что Ленину помогали, или о тех кого по лесам коммисариат после войны искал?
Go to the top of the page
  Insert nick Quick quote
+Quote Post
post Jul 25 2015, 13:56:01
Post #32

Cthulhu Cultist
**********
Group: Металариец
Posts: 1,455
Releases: 5
From: Киев
On Forums: 16 years 7 months
Thanks: 591 time(s)
Ukraine


ЦИТАТА(Phlebotomized @ 25th July 2015 - 15:05:57) *
О тех что Ленину помогали, или о тех кого по лесам коммисариат после войны искал?

скорее о тех, которые мочили комми.)
Go to the top of the page
  Insert nick Quick quote
+Quote Post
post Jul 26 2015, 19:52:16
Post #33

زرنيخ
**************
Group: Металариец
Posts: 2,345
Releases: 3
From: Санкт-Петербург
On Forums: 9 years 2 months
Thanks: 3038 time(s)
Russian Federation


ЦИТАТА(Phlebotomized @ Jul 25 2015, 15:05:57) *
О тех что Ленину помогали, или о тех кого по лесам коммисариат после войны искал?

Об этих.

Но это на другом альбоме. А на этом — о Пруссии.

ЦИТАТА(ssv @ Jul 25 2015, 15:56:01) *
скорее о тех, которые мочили комми.)

Ну да, именно по этой причине
ЦИТАТА
После Октябрьской революции, во время Гражданской войны в России латышские полки поддержали большевиков и стали одними из первых воинских частей, стоявших у основания РККА.


Thanks:
Go to the top of the page
  Insert nick Quick quote
+Quote Post
post Mar 16 2016, 17:37:10
Post #34

Lighthouse
***********
Group: Металариец
Posts: 1,964
Releases: 0
From: Сургут
On Forums: 14 years 11 months
Thanks: 1621 time(s)
Russian Federation


Register



Go to the top of the page
  Insert nick Quick quote
+Quote Post
post Oct 14 2023, 03:37:42
Post #35

Пять Литров
*****
Group: Металариец
Posts: 432
Releases: 0
On Forums: 6 years 8 months
Thanks: 28 time(s)
United Nations


Can someone please reup?
Go to the top of the page
  Insert nick Quick quote
+Quote Post
post Oct 14 2023, 09:57:04
Post #36

Три Литра
***
Group: Завсегдатай
Posts: 200
Releases: 0
On Forums: 4 years 8 months
Thanks: 128 time(s)
Unknown


Register


Thanks:
Go to the top of the page
  Insert nick Quick quote
+Quote Post

2 Pages V  < 1 2
Reply to this topicStart new topic
1 User(s) are reading this topic (1 Guests and 0 Anonymous Users)
0 Members:

 



- Lo-Fi Version Support form
Copyrights and abuse reports form
Time is now: 14th June 2024 - 08:16:23