Welcome Guest ( Log In | Register )

Объявления

* gmail.com упорно продолжает считать почту с нас "unsolicited" и отбивает в том числе и письма активации, поэтому просьба использовать альтернативные почтовые ящики.
------------
* gmail.com continues reject all mail from us as "unsolicited" (activation mails too) therefore please use alternate mail servers.
> Sepultus Est - Apocalyctic Trumpets Act I (2012), Atmospheric Death/Doom Metal
post Apr 20 2015, 11:58:30
Post #1

Литр
*
Group: Подсевший
Posts: 78
Releases: 31
From: SPb
On Forums: 16 years 4 months
Thanks: 862 time(s)
Russian Federation


(IMG:http://metalarea.org/images/audiocovers/2015_Apr/acov_tid243782_thumb.jpg)

*Artist: Sepultus Est
*Album: Apocalyctic Trumpets Act I
*Year: 2012
*Genre: Atmospheric Death/Doom Metal
*Country: Peru (IMG:http://metalarea.org/forum/style_images/flags/Peru.png)
*Format: mp3@CBR320kbps
*Size: 113MB

Tracklist:
1. Apocalyctic Trumpet I 16:48
2. Apocalyctic Trumpet II 5:10
3. Apocalyctic Trumpet III 19:38
4. Apocalyctic Trumpet IV 5:31
******************************
Total playing time: 47:07

Technical info
(IMG:http://metalarea.org/images/spectrogram/2015_Apr/ab788c8f88543f91a1e117189f301c43.png)
Input File: 01. Apocalyctic Trumpet I.mp3
Channels : 2
Sample Rate : 44100
Precision : 16-bit
Duration : 00:16:47.76 = 44442216 samples = 75582 CDDA sectors
File Size : 40.3M
Bit Rate : 320k
Sample Encoding: MPEG audio (layer I, II or III)
Comments :
Title=Apocalyctic Trumpet I
Artist=Sepultus Est
Album=Apocalyctic Trumpets Act I
Tracknumber=01/04
Year=2012
Genre=Doom Metal



Register


Go to the top of the page
  Insert nick Quick quote
+Quote Post
 
Start new topic
Replies (1 - 6)
post Apr 20 2015, 12:36:17
Post #2

...
**************
Group: Металариец
Posts: 3,720
Releases: 1560
From: МЕЩЁРА
On Forums: 16 years 2 months
Thanks: 46148 time(s)
Russian Federation






Thanks:
(1) Rosen,
Go to the top of the page
  Insert nick Quick quote
+Quote Post
Lion
post Apr 20 2015, 13:36:12
Post #3

Guests team






Register


Go to the top of the page
  Insert nick Quick quote
+Quote Post
post Apr 20 2015, 23:13:54
Post #4

Правь статус, ####!111
**************
Group: Металариец
Posts: 3,159
Releases: 0
From: д. Гадюкино
On Forums: 10 years 1 week
Thanks: 3214 time(s)
Russian Federation


Funeral Folk Doom. отлично! Male + Female Vocal.
Go to the top of the page
  Insert nick Quick quote
+Quote Post
post Apr 20 2015, 23:53:01
Post #5

Шесть Литров
******
Group: Металариец
Posts: 673
Releases: 4
From: Ukraine
On Forums: 15 years 4 months
Thanks: 400 time(s)
Ukraine


ЦИТАТА(Veggr @ Apr 21 2015, 01:13:54) *
Funeral Folk Doom. отлично! Male + Female Vocal.


+ shemale Vocal.


Thanks:
(1) WOLAND,
Go to the top of the page
  Insert nick Quick quote
+Quote Post
post May 20 2015, 21:04:31
Post #6

antithesis
**************
Group: Металариец
Posts: 4,104
Releases: 36
From: VRN
On Forums: 14 years 1 week
Thanks: 2710 time(s)
Russian Federation


неплохой стафф, цепляет.
Go to the top of the page
  Insert nick Quick quote
+Quote Post
post Apr 19 2016, 10:22:22
Post #7

Четыре Литра
****
Group: Металариец
Posts: 385
Releases: 137
From: Italy
On Forums: 11 years 3 months
Thanks: 3165 time(s)
Italy


Register



Thanks:
Go to the top of the page
  Insert nick Quick quote
+Quote Post

Reply to this topicStart new topic
2 User(s) are reading this topic (2 Guests and 0 Anonymous Users)
0 Members:

 



- Lo-Fi Version Support form
Copyrights and abuse reports form
Time is now: 30th May 2024 - 23:56:38