Welcome Guest ( Log In | Register )

> И неформату есть предел.

Рэп/хип-хоп/шансон/поп удаляются. Для них есть свои порталы.

> Xanctux - Lasciate Ogni Speranza (2015), Dark Ambient
satanihil
post Apr 21 2015, 22:14:42
Post #1

Guests team






(IMG:http://metalarea.org/images/audiocovers/2015_Apr/acov_tid243902_thumb.jpg)

*Artist: Xanctux
*Album: Lasciate Ogni Speranza
*Year: 2015
*Genre: Dark Ambient
*Country: Poland (IMG:http://metalarea.org/forum/style_images/flags/Poland.png)
*Format: mp3@CBR320kbps
*Size: 143MB

Tracklist:
1.Lasciate Ogni Speranza
2.Amidst the Rain
3.Desolation
4.Transcendental
5.Destroyed
6.Between Pain and Fear
7.Black Dawn
8.Myth
******************************
Total playing time: 1:02:56

(IMG:http://metalarea.org/images/youtube.png)
(IMG:http://metalarea.org/images/youtube.png)

Extended info
Polish black ambient project.


Technical info
(IMG:http://metalarea.org/images/spectrogram/2015_Apr/fe8512a3334dc2945275b63c82e076d7.png)
Input File: Xanctux - 07 Black Dawn.mp3
Channels : 2
Sample Rate : 44100
Precision : 16-bit
Duration : 00:03:51.00 = 10187056 samples = 17324.9 CDDA sectors
File Size : 9.24M
Bit Rate : 320k
Sample Encoding: MPEG audio (layer I, II or III)
Comments :
Title=Black Dawn
Artist=Xanctux
Album=Lasciate Ogni Speranza
Tracknumber=7
Year=2015
Genre=Black Ambient



Register


Go to the top of the page
  Insert nick Quick quote
+Quote Post
 
Start new topic
Replies (1 - 3)
post Jun 21 2021, 12:57:20
Post #2

Шесть Литров
******
Group: Металариец
Posts: 600
Releases: 0
On Forums: 10 years 2 weeks
Thanks: 51 time(s)
Unknown


Перезалейте плиз. Не распаковывается.
Go to the top of the page
  Insert nick Quick quote
+Quote Post
post Jun 21 2021, 16:24:15
Post #3

Forever Underground
**************
Group: Металариец
Posts: 8,816
Releases: 0
On Forums: 6 years 5 months
Thanks: 12259 time(s)
Unknown


QUOTE(666ed @ Jun 21 2021, 13:57:20) *
Перезалейте плиз. Не распаковывается

Link in the 1st post is still alive; if you (or anyone else) need it, here is a mirror link:
Register
Go to the top of the page
  Insert nick Quick quote
+Quote Post
post Jun 22 2021, 04:29:35
Post #4

Шесть Литров
******
Group: Металариец
Posts: 600
Releases: 0
On Forums: 10 years 2 weeks
Thanks: 51 time(s)
Unknown


Thanks (IMG:style_emoticons/default/m0114.gif)
Go to the top of the page
  Insert nick Quick quote
+Quote Post

Reply to this topicStart new topic
1 User(s) are reading this topic (1 Guests and 0 Anonymous Users)
0 Members:

 



- Lo-Fi Version Support form
Copyrights and abuse reports form
Time is now: 28th September 2021 - 08:04:24