Welcome Guest ( Log In | Register )

> Korium & Tundra - Dreams Of A Gone Existence [split] (2015), Black Metal | Black Metal
post May 4 2015, 04:30:19
Post #1

Правь статус, ####!111
**************
Group: Металариец
Posts: 4,800
Releases: 1472
From: Brazil
On Forums: 9 years 4 months
Thanks: 55056 time(s)
Brazil


(IMG:https://metalarea.org/images/audiocovers/2015_May/acov_tid244623_thumb.jpg)

*Artist: Korium & Tundra
*Album: Dreams Of A Gone Existence [split]
*Year: 2015
*Genre: Black Metal | Black Metal
*Country: Slovakia (IMG:https://metalarea.org/forum/style_images/flags/Slovakia.png) | Italy (IMG:https://metalarea.org/forum/style_images/flags/Italy.png)
*Format: mp3@CBR320kbps
*Size: 98MB

Tracklist:
Korium:
01. Prelet Smrti Nad Cačhtickám Hradom 15:48
Tundra:
02. Buio 01:18
03. Death From Above 06:36
04. Return to Darkside 06:34
05. The Mirror of Elizabeth 06:21
06. The Triumphant March of Death 03:26
******************************
Total playing time: 40:03

(IMG:https://metalarea.org/images/youtube.png)


Extended info
included scans*
TUNDRA \ KORIUM "Dreams Of A Gone Existence"
split concept about Erzsebet Bathory
cd limited to 300 copies
Released by Slava Satan Records
Official Distribution Avantgarde Music \ Sound Cave


Technical info
(IMG:https://metalarea.org/images/spectrogram/2015_May/ca4b774dc2fc735f2d6449373582a9ea.png)
Input File: 04. Return to Darkside.mp3
Channels : 2
Sample Rate : 44100
Precision : 16-bit
Duration : 00:06:34.19 = 17383603 samples = 29564 CDDA sectors
File Size : 15.9M
Bit Rate : 323k
Sample Encoding: MPEG audio (layer I, II or III)
Comments :
Title=Return to Darkside
Artist=Tundra
Album=Dreams of a Gone Existence
Tracknumber=4/6
Year=2015
Genre=Black Metal
Discnumber=1/1



Register


Go to the top of the page
  Insert nick Quick quote
+Quote Post
 
Start new topic
Replies (1 - 3)
post May 4 2015, 19:37:44
Post #2

Black Metal - Dødsengel
**********
Group: Металариец
Posts: 1,363
Releases: 366
From: Black Hole Sokolov, region Karlovy Vary
On Forums: 12 years 3 months
Thanks: 7382 time(s)
Czech Republic


correct is Prelet smrti nad Čachtickým hradom


Thanks:
(1) murian,
Go to the top of the page
  Insert nick Quick quote
+Quote Post
post May 12 2015, 05:39:41
Post #3

i listen to black metal
**************
Group: Металариец
Posts: 2,950
Releases: 138
From: Москва
On Forums: 14 years 6 months
Thanks: 2318 time(s)
Russian Federation


ну тундра-простенько,а кориум хороший депресняк)
Go to the top of the page
  Insert nick Quick quote
+Quote Post
post Jan 2 2017, 19:29:29
Post #4

Group: Подсевший
Posts: 15
Releases: 0
From: Italy
On Forums: 12 years 2 weeks
Thanks: 1 time(s)
Italy


thanx for sharing
Go to the top of the page
  Insert nick Quick quote
+Quote Post

Reply to this topicStart new topic
1 User(s) are reading this topic (1 Guests and 0 Anonymous Users)
0 Members:

 



- Lo-Fi Version Support form
Copyrights and abuse reports form
Time is now: 25th June 2021 - 11:18:32