Welcome Guest ( Log In | Register )

> И неформату есть предел.

Рэп/хип-хоп/шансон/поп удаляются. Для них есть свои порталы.

> Deviant - 21th Century Deities [ep] (1991), Funk Metal (D14)
post May 4 2015, 20:56:19
Post #1

Три Литра
***
Group: Завсегдатай
Posts: 283
Releases: 174
On Forums: 10 years 9 months
Thanks: 1798 time(s)
Russian Federation


(IMG:http://metalarea.org/images/audiocovers/2015_May/acov_tid244670_thumb.jpg)

*Artist: Deviant
*Album: 21th Century Deities [ep]
*Year: 1991
*Genre: Funk Metal
*Country: United Kingdom (IMG:http://metalarea.org/forum/style_images/flags/United%20Kingdom.png)
*Format: mp3@CBR320kbps
*Size: 23MB

Tracklist:
01. In Pursuit Of Happiness 03:20
02. Masquerade 02:34
03. Say It To My Face 04:15
******************************
Total playing time: 10:09

Technical info
(IMG:http://metalarea.org/images/spectrogram/2015_May/566e95426d03927220bae710b2caf5ab.png)
Input File: 01 - In Pursuit Of Happiness.mp3
Channels : 2
Sample Rate : 44100
Precision : 16-bit
Duration : 00:03:20.99 = 8863571 samples = 15074.1 CDDA sectors
File Size : 8.04M
Bit Rate : 320k
Sample Encoding: MPEG audio (layer I, II or III)
Comments :
Title=In Pursuit Of Happiness
Artist=DEVIANT
Album=21th Century Deities /EP/
Tracknumber=1
Year=1991



Register
Go to the top of the page
  Insert nick Quick quote
+Quote Post
 
Start new topic
Replies (1 - 1)
post Aug 7 2019, 18:32:09
Post #2

Пять Литров
*****
Group: Металариец
Posts: 446
Releases: 6
From: екб
On Forums: 14 years 1 month
Thanks: 116 time(s)
Russian Federation


Есть у кого возможность перезалить?
Go to the top of the page
  Insert nick Quick quote
+Quote Post

Reply to this topicStart new topic
1 User(s) are reading this topic (1 Guests and 0 Anonymous Users)
0 Members:

 



- Lo-Fi Version Support form
Copyrights and abuse reports form
Time is now: 20th November 2019 - 16:26:37