Welcome Guest ( Log In | Register )

> 

Здесь релизы с живыми прямыми ссылками на lossless

> The Everscathed - Scars To Bare (2015), Death Metal
post May 7 2015, 20:13:08
Post #1

Правь статус, ####!111
**************
Group: Металариец
Posts: 27,441
Releases: 19922
From: Г.Харьков
On Forums: 9 years 4 months
Thanks: 402230 time(s)
Unknown


(IMG:https://metalarea.org/images/audiocovers/2015_May/acov_tid244847_thumb.jpg)

*Artist: The Everscathed
*Album: Scars To Bare
*Year: 2015
*Genre: Death Metal
*Country: United States (IMG:https://metalarea.org/forum/style_images/flags/United%20States.png)
*Format: mp3@CBR320kbps
*Size: 93MB

Tracklist:
01. Becoming The Executioner
02. Hammers At Dawn
03. The Opposite Reflection
04. Maim The Wandering
05. Bear The Scars
06. Cursing My Name
07. Wave Of Disaster
08. Where I Lie
******************************
Total playing time: 40:45

(IMG:https://metalarea.org/images/youtube.png)

Technical info
(IMG:https://metalarea.org/images/spectrogram/2015_May/93d0a09608612a94b8830d82fc6d2826.png)
Input File: 02. Hammers At Dawn.mp3
Channels : 2
Sample Rate : 44100
Precision : 16-bit
Duration : 00:04:54.69 = 12995917 samples = 22101.9 CDDA sectors
File Size : 11.9M
Bit Rate : 324k
Sample Encoding: MPEG audio (layer I, II or III)
Comments :
Title=Hammers At Dawn
Artist=The Everscathed
Album=Scars to Bare
Tracknumber=2/8
Year=2015



Register


Go to the top of the page
  Insert nick Quick quote
+Quote Post
 
Start new topic
Replies (1 - 2)
post May 29 2016, 14:45:35
Post #2

_ - = # Thrashogolic # = - _ ... а давайте поржём все вместе
**************
Group: Металариец
Posts: 21,095
Releases: 4443
From: 404
On Forums: 11 years 3 months
Thanks: 28082 time(s)
Ukraine


Go to the top of the page
  Insert nick Quick quote
+Quote Post
post Oct 8 2020, 11:29:27
Post #3

Old School Metal
**************
Group: Металариец
Posts: 4,037
Releases: 0
From: г. Минск
On Forums: 12 years 6 months
Thanks: 9600 time(s)
Belarus



(IMG:https://d.radikal.ru/d11/2010/0f/40f111e7985f.png)


Format: mp3@320kbps (Lame 3.93.1)
Register

Lossless: FLAC (tracks)
Register



Thanks:
(2) Deni, frituz3,
Go to the top of the page
  Insert nick Quick quote
+Quote Post

Reply to this topicStart new topic
1 User(s) are reading this topic (1 Guests and 0 Anonymous Users)
0 Members:

 



- Lo-Fi Version Support form
Copyrights and abuse reports form
Time is now: 27th September 2021 - 04:05:26