Welcome Guest ( Log In | Register )

> Prekurxor - All To No Avail [ep] (2015), Atmospheric Black Metal
post May 10 2015, 08:48:21
Post #1

Время Мары
**************
Group: Металариец
Posts: 3,234
Releases: 468
From: Харьков
On Forums: 11 years 11 months
Thanks: 9579 time(s)
Ukraine


(IMG:http://metalarea.org/images/audiocovers/2015_May/acov_tid245012_thumb.jpg)

*Artist: Prekurxor
*Album: All To No Avail [ep]
*Year: 2015
*Genre: Atmospheric Black Metal
*Country: Singapore (IMG:http://metalarea.org/forum/style_images/flags/Singapore.png)
*Format: mp3@CBR320kbps
*Size: 52MB

Tracklist:
1. The Serpent's Coil
2. Antiquity
3. Negate
******************************
Total playing time: 23:03

Technical info
(IMG:http://metalarea.org/images/spectrogram/2015_May/c4db7f338479836a9050044976ce56c4.png)
Input File: 1. The Serpent\\\'s Coil.mp3
Channels : 2
Sample Rate : 44100
Precision : 16-bit
Duration : 00:06:06.58 = 16166354 samples = 27493.8 CDDA sectors
File Size : 14.7M
Bit Rate : 322k
Sample Encoding: MPEG audio (layer I, II or III)
Comments :
Title=The Serpent's Coil
Artist=Prekurxor
Album=All To No Avail
Tracknumber=1
Year=2015



Register


Go to the top of the page
  Insert nick Quick quote
+Quote Post
 
Start new topic
Replies (1 - 2)
post May 11 2015, 00:31:06
Post #2

Правь статус, ####!111
**************
Group: Металариец
Posts: 2,462
Releases: 12
From: Canada
On Forums: 13 years 11 months
Thanks: 1686 time(s)
Canada




Thanks:
Go to the top of the page
  Insert nick Quick quote
+Quote Post
post May 4 2021, 16:20:34
Post #3

Правь статус, ####!111
**************
Group: Металариец
Posts: 4,591
Releases: 276
From: MoscoW
On Forums: 14 years 5 months
Thanks: 5178 time(s)
Russian Federation


Можно скачать Б/П в 320kbps!!!:
PREKURXOR:

(IMG:style_emoticons/default/metaler.gif)


Thanks:
Go to the top of the page
  Insert nick Quick quote
+Quote Post

Reply to this topicStart new topic
2 User(s) are reading this topic (2 Guests and 0 Anonymous Users)
0 Members:

 



- Lo-Fi Version Support form
Copyrights and abuse reports form
Time is now: 16th May 2021 - 20:13:50