Welcome Guest ( Log In | Register )

> Powerwolf - Army Of The Night [single] (2015), Power Metal (D)
post May 15 2015, 16:15:17
Post #1

Маньяк
**********
Group: Металариец
Posts: 1,230
Releases: 101
From: 56°24′00″ с. ш. 61°56′00″ в. д.
On Forums: 17 years 3 months
Thanks: 2270 time(s)
Russian Federation


(IMG:http://metalarea.org/images/audiocovers/2015_May/acov_tid245359_thumb.jpg)

*Artist: Powerwolf
*Album: Army Of The Night [single]
*Year: 2015
*Genre: Power Metal
*Country: Germany (IMG:http://metalarea.org/forum/style_images/flags/Germany.png)
*Format: mp3@CBR320kbps
*Size: 8MB

Tracklist:
1. Army Of The Night 03:22
******************************
Total playing time: 3:22

Technical info
(IMG:http://metalarea.org/images/spectrogram/2015_May/bc4d0c7841f317206f6c4293e7139638.png)
Input File: 01. Army Of The Night.mp3
Channels : 2
Sample Rate : 44100
Precision : 16-bit
Duration : 00:03:21.53 = 8887341 samples = 15114.5 CDDA sectors
File Size : 8.17M
Bit Rate : 324k
Sample Encoding: MPEG audio (layer I, II or III)
Comments :
Title=Army Of The Night
Artist=Powerwolf
Album=Army Of The Night
Tracknumber=1/1
Year=2015
Genre=Rock
Discnumber=1/1



Register


Go to the top of the page
  Insert nick Quick quote
+Quote Post
 
Start new topic
Replies (1 - 5)
post May 17 2015, 17:28:48
Post #2

Три Литра
***
Group: Завсегдатай
Posts: 251
Releases: 0
From: Odessa
On Forums: 16 years 2 months
Thanks: 55 time(s)
Ukraine


https://www.youtube.com/watch?v=hVgLsJMgsyQ&hd=1

Не впечатлило. Какой-то самоплагиат.


Thanks:
(1) Fess,
Go to the top of the page
  Insert nick Quick quote
+Quote Post
post May 18 2015, 10:26:55
Post #3

Necromancer
Group Icon
Group: Curation team
Posts: 11,046
Releases: 271
From: Зеленоград
On Forums: 17 years 6 months
Thanks: 8965 time(s)
Russian Federation


Никакого самоплагиата нет и быть не может. Группа исполняет музыку в давно выбранной манере и иначе не будет и не надо. И песня классная.
Go to the top of the page
  Insert nick Quick quote
+Quote Post
post May 18 2015, 15:37:41
Post #4

Ёлд ХеллоВяйне
Group Icon
Group: V.I.P
Posts: 34,795
Releases: 143
From: Питер
On Forums: 17 years 5 months
Thanks: 21959 time(s)
Russian Federation


QUOTE(Fess @ 18th May 2015 - 12:26:55) *
Никакого самоплагиата нет и быть не может.


Быхыхыхы (IMG:style_emoticons/default/15.gif)


Thanks:
Go to the top of the page
  Insert nick Quick quote
+Quote Post
post May 18 2015, 16:20:38
Post #5

brutalcesar
**************
Group: Металариец
Posts: 18,784
Releases: 77
From: Рязань
On Forums: 15 years 2 months
Thanks: 11245 time(s)
Russian Federation


Мягче стали что ли (IMG:style_emoticons/default/hmm.gif)
Но понравилось.
Go to the top of the page
  Insert nick Quick quote
+Quote Post
post Jun 6 2015, 15:26:59
Post #6

Перевозчик
**************
Group: Металариец
Posts: 3,617
Releases: 0
On Forums: 15 years 9 months
Thanks: 797 time(s)
Russian Federation


Павервульф - вся банда сплошной самоплагиат. Помню времена, когда их можно было уличить в некоей соревновательности с Сабатоном, но они выбрали соседнюю нишу, однако та оказалась слишком узкой и тесной. Вот поставь всю их дискографию в рандомайз - хрень отличишь какая песня с какого альбома, все треки на один мотив и везде хелилуя! Но слушается неплохо, потому что каждая песня в то же время - хит, иногда гоняю их, когда скучно становится. Долго и систематично слушать такое невозможно.


Thanks:
(1) MeatWolf,
Go to the top of the page
  Insert nick Quick quote
+Quote Post

Reply to this topicStart new topic
2 User(s) are reading this topic (2 Guests and 0 Anonymous Users)
0 Members:

 



- Lo-Fi Version Support form
Copyrights and abuse reports form
Time is now: 15th April 2024 - 03:20:36