Welcome Guest ( Log In | Register )

> И неформату есть предел.

Рэп/хип-хоп/шансон/поп удаляются. Для них есть свои порталы.

 
Reply to this topicStart new topic
> Кроссроудз - Между (1992), Blues
post May 16 2015, 21:18:09
Post #1

Крещенный в алкоголе
***********
Group: Металариец
Posts: 1,588
Releases: 30
From: Sea of darkness
On Forums: 16 years 3 months
Thanks: 735 time(s)
Israel


(IMG:http://metalarea.org/images/audiocovers/2015_May/acov_tid245432_thumb.jpg)

*Artist: Кроссроудз
*Album: Между
*Year: 1992
*Genre: Blues
*Country: Russian Federation (IMG:http://metalarea.org/forum/style_images/flags/Russian%20Federation.png)
*Format: mp3@CBR320kbps
*Size: 103MB

Tracklist:
1.Blues lives in Rossia 3:59
2.Diamond Rain 4:56
3.Сколько можно терпеть 5:11
4.Fool Boy 3:06
5.By My Hand 4:39
6.Be What You Are 3:13
7.Вио 5:26
8.Can't Get Away 4:44
9.We Are Still Around 3:25
10.Miracle 4:04
11.Вторник 2:37
******************************
Total playing time: 45:20

Extended info
Я не являюсь большим ценителем блюза, но этот альбом мне крайне понравился. Разве что почему то в первой песне акцент выделяется, в то время как во всех остальных он совсем незаметен.

Diamond Rain - шедевр!


Technical info
(IMG:http://metalarea.org/images/spectrogram/2015_May/a663227170591bcffa17bc5c94acf1ca.png)
Input File: 11 Вторник.mp3
Channels : 2
Sample Rate : 44100
Precision : 16-bit
Duration : 00:02:37.77 = 6957701 samples = 11832.8 CDDA sectors
File Size : 6.31M
Bit Rate : 320k
Sample Encoding: MPEG audio (layer I, II or III)
Comments :
Title=Вторник
Artist=РљСЂРѕСЃСЃСЂРѕСѓРґР·
Album=Между ...
Tracknumber=11
Year=1994
Genre=Blues



Register


Thanks:
Go to the top of the page
  Insert nick Quick quote
+Quote Post

Reply to this topicStart new topic
2 User(s) are reading this topic (2 Guests and 0 Anonymous Users)
0 Members:

 



- Lo-Fi Version Support form
Copyrights and abuse reports form
Time is now: 24th January 2022 - 14:40:24