Welcome Guest ( Log In | Register )

> Eschaton - Sentinel Apocalypse (2015), Technical Death Metal/Deathcore (D)
post May 18 2015, 11:46:39
Post #1

Serial Uploader
Group Icon
Group: V.I.P
Posts: 37,219
Releases: 35402
From: Lithuania
On Forums: 12 years 1 month
Thanks: 421531 time(s)
Lithuania


(IMG:https://metalarea.org/images/audiocovers/2015_May/acov_tid245498_thumb.jpg)

*Artist: Eschaton
*Album: Sentinel Apocalypse
*Year: 2015
*Genre: Technical Death Metal/Deathcore
*Country: United States (IMG:https://metalarea.org/forum/style_images/flags/United%20States.png)
*Format: mp3@CBR320kbps
*Size: 103MB

Tracklist:
01. Obligatory Conviction 03:40
02. Behold The Nexus 04:13
03. Immortal Mutilation 04:17
04. Achromatic Reign 04:58
05. Animus 03:45
06. Falsified Existence 02:31
07. Intergalactic Annihilation 03:17
08. The Beast Is Embedded 02:43
09. The Beast Is Awakened 02:25
10. Cognitive Hatred 02:07
11. Sentinel Apocalypse 06:53
******************************
Total playing time: 40:49

(IMG:https://metalarea.org/images/myspace.png)


Technical info
(IMG:https://metalarea.org/images/spectrogram/2015_May/e6d5ea4df3d64b4a45168be20499ed80.png)
Input File: 02. Behold the Nexus.mp3
Channels : 2
Sample Rate : 44100
Precision : 16-bit
Duration : 00:04:13.57 = 11182481 samples = 19017.8 CDDA sectors
File Size : 10.3M
Bit Rate : 326k
Sample Encoding: MPEG audio (layer I, II or III)
Comments :
Title=Behold the Nexus
Artist=Eschaton
Album=Sentinel Apocalypse
Tracknumber=2/11
Year=2015



Register


Go to the top of the page
  Insert nick Quick quote
+Quote Post
 
Start new topic
Replies (1 - 1)
post Sep 12 2019, 20:47:31
Post #2

Quaerite Lux in Tenebris
**************
Group: Металариец
Posts: 2,524
Releases: 45
From: Micsődőllő
On Forums: 9 years 11 months
Thanks: 5131 time(s)
Unknown


ЦИТАТА
Re-up please!

Прямой линк из сети / 320 к (проверенные) / 94 Mb:
Register



Go to the top of the page
  Insert nick Quick quote
+Quote Post

Reply to this topicStart new topic
1 User(s) are reading this topic (1 Guests and 0 Anonymous Users)
0 Members:

 



- Lo-Fi Version Support form
Copyrights and abuse reports form
Time is now: 13th July 2020 - 05:36:59