Welcome Guest ( Log In | Register )

> Helligators - Road Roller Machine(2015), Southern/Hard Rock/Heavy Metal
Lion
post May 31 2015, 10:54:16
Post #1

Guests team






(IMG:https://metalarea.org/images/audiocovers/2015_May/acov_tid246381_thumb.jpg)

*Artist: Helligators
*Album: Road Roller Machine
*Year: 2015
*Genre: Southern/Hard Rock/Heavy Metal
*Country: Italy (IMG:https://metalarea.org/forum/style_images/flags/Italy.png)
*Format: mp3@CBR320kbps
*Size: 120MB

Tracklist:
01. Nomad
02. The Doomstroyer
03. Scream
04. She Laughs
05. Snake Oil Jesus
06. Truckdriver
07. Swamp Man Voodoo
08. Bad Ass
09. Stone Crusher
10. Black Sun
******************************
Total playing time: 52:15

Preview 1

Technical info
(IMG:https://metalarea.org/images/spectrogram/2015_May/bcab99baedf2cbc7b51a06cae4d72b70.png)
Input File: 01. Nomad.mp3
Channels : 2
Sample Rate : 44100
Precision : 16-bit
Duration : 00:05:17.34 = 13994782 samples = 23800.6 CDDA sectors
File Size : 12.8M
Bit Rate : 322k
Sample Encoding: MPEG audio (layer I, II or III)
Comments :
Title=Nomad
Artist=Helligators
Album=Road Roller Machine
Tracknumber=1/10
Year=2015
Genre=Metal



Register


Thanks:
(3) bka, Rosen, wreak,
Go to the top of the page
  Insert nick Quick quote
+Quote Post
 
Start new topic
Replies (1 - 2)
post Jun 1 2015, 06:01:46
Post #2

Крещенный в алкоголе
***********
Group: Металариец
Posts: 1,588
Releases: 30
From: Sea of darkness
On Forums: 16 years 3 months
Thanks: 735 time(s)
Israel


А я уж подумал, что наконец то начали называть альбомы как следует.


Thanks:
Go to the top of the page
  Insert nick Quick quote
+Quote Post
Anger
post Jun 4 2015, 02:31:06
Post #3

Guests team






Неплохо
Go to the top of the page
  Insert nick Quick quote
+Quote Post

Reply to this topicStart new topic
2 User(s) are reading this topic (2 Guests and 0 Anonymous Users)
0 Members:

 



- Lo-Fi Version Support form
Copyrights and abuse reports form
Time is now: 22nd January 2022 - 19:28:21