Welcome Guest ( Log In | Register )

> G13 Band - Heroes & Demons (2015), Heavy Metal/Hard Rock
Lion
post May 31 2015, 11:14:51
Post #1

Guests team






(IMG:https://metalarea.org/images/audiocovers/2015_May/acov_tid246384_thumb.jpg)

*Artist: G13 Band
*Album: Heroes & Demons
*Year: 2015
*Genre: Heavy Metal/Hard Rock
*Country: United States (IMG:https://metalarea.org/forum/style_images/flags/United%20States.png)
*Format: mp3@CBR320kbps
*Size: 89MB

Tracklist:
01. Eyez in Disguize
02. Just a Dream
03. Heroes & Demons
04. Generation Youth
05. Get Wired
06. The Distant Mile
07. When Silence Breaks
08. What Would You Do for a Soldier
******************************
Total playing time: 38:37

Preview 1

Technical info
(IMG:https://metalarea.org/images/spectrogram/2015_May/50678cdde04bf191af7cb8de70b03c8b.png)
Input File: 01. Eyez in Disguize.mp3
Channels : 2
Sample Rate : 44100
Precision : 16-bit
Duration : 00:04:27.13 = 11780433 samples = 20034.8 CDDA sectors
File Size : 10.8M
Bit Rate : 323k
Sample Encoding: MPEG audio (layer I, II or III)
Comments :
Title=Eyez in Disguize
Artist=G13 Band
Album=Heroes & Demons
Tracknumber=1/8
Year=2015
Genre=Heavy Metal



Register


Go to the top of the page
  Insert nick Quick quote
+Quote Post
 
Start new topic
Replies (1 - 1)
post Apr 13 2022, 21:48:16
Post #2

Going home. Flying high.
**************
Group: Металариец
Posts: 13,612
Releases: 0
From: The Land of Shadows
On Forums: 16 years 5 months
Thanks: 30482 time(s)
Russian Federation


from web
Register


Thanks:
(1) varlam4,
Go to the top of the page
  Insert nick Quick quote
+Quote Post

Reply to this topicStart new topic
1 User(s) are reading this topic (1 Guests and 0 Anonymous Users)
0 Members:

 



- Lo-Fi Version Support form
Copyrights and abuse reports form
Time is now: 8th February 2023 - 17:45:38