Welcome Guest ( Log In | Register )

> Embrace Of Thorns - Darkness Impenetrable (2015), Black/Death Metal
post Jun 6 2015, 00:38:57
Post #1

Serial Uploader
Group Icon
Group: V.I.P
Posts: 37,016
Releases: 35198
From: Lithuania
On Forums: 11 years 8 months
Thanks: 414875 time(s)
Lithuania


(IMG:http://metalarea.org/images/audiocovers/2015_Jun/acov_tid246812_thumb.jpg)

*Artist: Embrace Of Thorns
*Album: Darkness Impenetrable
*Year: 2015
*Genre: Black/Death Metal
*Country: Greece (Athens, Attica) (IMG:http://metalarea.org/forum/style_images/flags/Greece.png)
*Format: mp3@CBR320kbps
*Size: 91MB

Tracklist:
01. Of Morbid Existentialism & Unholy Sorrow
02. Sons of Fire & Brimstone Levitate!
03. My Hermetic Quest for Thy Blackest Temple
04. Darkness Impenetrable
05. Erect Bloodstained Totems
06. At the Antipodes of Chastity (Hail the Sons of Cain)
07. I Die Therefore I Exist
08. Charon’s Ride over Wasteland
09. Der grausame Aspekt der menschlichen Wirklichkeit
10. Aiwaz Arisen
******************************
Total playing time: 38:53

Technical info
(IMG:http://metalarea.org/images/spectrogram/2015_Jun/4f2f9a407120cc904e7f8a67d7940015.png)
Input File: Embrace of Thorns - Darkness Impenetrable - 07 I Die Therefore I Exist.mp3
Channels : 2
Sample Rate : 44100
Precision : 16-bit
Duration : 00:05:14.39 = 13864599 samples = 23579.2 CDDA sectors
File Size : 13.1M
Bit Rate : 334k
Sample Encoding: MPEG audio (layer I, II or III)
Comments :
Title=I Die Therefore I Exist
Artist=Embrace of Thorns
Album=Darkness Impenetrable
Tracknumber=7
Year=2015



Register

Register


This post has been edited by DarkHorde: Jun 6 2015, 15:04:06


Go to the top of the page
  Insert nick Quick quote
+Quote Post
 
Start new topic
Replies (1 - 6)
post Jun 6 2015, 13:18:32
Post #2

\m/
Group Icon
Group: S-moderation team
Posts: 7,750
Releases: 19
From: Петропавловск-Камчатский
On Forums: 10 years 8 months
Thanks: 7451 time(s)
Russian Federation


Added links by antonovivan
Go to the top of the page
  Insert nick Quick quote
+Quote Post
post Jun 6 2015, 13:42:55
Post #3

Четыре Литра
****
Group: Металариец
Posts: 326
Releases: 4
From: Kostroma
On Forums: 10 years 8 months
Thanks: 694 time(s)
Russian Federation


Эх, necroscum, опередил меня на пару часов (IMG:style_emoticons/default/1488.gif) к слову, группа из Греции, заголовок поправить бы...


Thanks:
Go to the top of the page
  Insert nick Quick quote
+Quote Post
post Jun 10 2015, 03:58:34
Post #4

Правь статус, ####!111
**************
Group: Металариец
Posts: 2,455
Releases: 11
From: Canada
On Forums: 12 years 8 months
Thanks: 1625 time(s)
Canada




Thanks:
(1) sacrut,
Go to the top of the page
  Insert nick Quick quote
+Quote Post
post Jun 11 2015, 06:02:02
Post #5

Absorbence
***********
Group: Металариец
Posts: 1,705
Releases: 215
From: Vastland Abyss of Cthulhu
On Forums: 13 years 3 months
Thanks: 3749 time(s)
Canada


good thing, as many of them from Nuclear war Now, love that label!! (IMG:style_emoticons/default/pray.gif) (IMG:style_emoticons/default/pray.gif) (IMG:style_emoticons/default/pray.gif)


Thanks:
(1) wolverine,
Go to the top of the page
  Insert nick Quick quote
+Quote Post
post Jan 11 2016, 12:38:37
Post #6

Самый Тихий Час
**************
Group: Металариец
Posts: 5,875
Releases: 2
On Forums: 10 years 3 months
Thanks: 2678 time(s)
Unknown


по прошествии года с выхода могу сказать что с альбома оседает в голове только мрачно-тревожный рифф с Sons of Fire & Brimstone Levitate!
остальное фоном.((
Go to the top of the page
  Insert nick Quick quote
+Quote Post
post Dec 25 2016, 09:13:56
Post #7

Два Литра
**
Group: Завсегдатай
Posts: 133
Releases: 0
On Forums: 11 years 7 months
Thanks: 94 time(s)
Unknown


Re-up
Register


Go to the top of the page
  Insert nick Quick quote
+Quote Post

Reply to this topicStart new topic
1 User(s) are reading this topic (1 Guests and 0 Anonymous Users)
0 Members:

 



- Lo-Fi Version Support form
Copyrights and abuse reports form
Time is now: 24th February 2020 - 13:05:32