Welcome Guest ( Log In | Register )

> Spectral Wound - Terra Nullius (2015), Black Metal
Jacktheripper666
post Jun 15 2015, 15:42:27
Post #1

Guests team






(IMG:http://metalarea.org/images/audiocovers/2015_Jun/acov_tid247456_thumb.jpg)

*Artist: Spectral Wound
*Album: Terra Nullius
*Year: 2015
*Genre: Black Metal
*Country: Canada (IMG:http://metalarea.org/forum/style_images/flags/Canada.png)
*Format: mp3@CBR320kbps
*Size: 82MB

Tracklist:
1. Under a Purple Moon 03:57
2. A Nobler Rot 05:11
3. Winter Light 08:36
4. The Hammer and the Flute 05:32
5. A Cool Dark Place 05:50
6. White Heaven in Hell 05:42
******************************
Total playing time: 34:48



Technical info
(IMG:http://metalarea.org/images/spectrogram/2015_Jun/bd1af6efb242ccf204238868d382696f.png)
Input File: 02. A Nobler Rot.mp3
Channels : 2
Sample Rate : 44100
Precision : 16-bit
Duration : 00:05:11.25 = 13726213 samples = 23343.9 CDDA sectors
File Size : 12.6M
Bit Rate : 324k
Sample Encoding: MPEG audio (layer I, II or III)
Comments :
Title=A Nobler Rot
Artist=Spectral Wound
Album=Tarra Nullius
Tracknumber=2
Year=2015
Genre=Black Metal



Register


Go to the top of the page
  Insert nick Quick quote
+Quote Post
 
Start new topic
Replies (1 - 10)
post Jul 4 2015, 22:11:15
Post #2

Black is beautiful
***********
Group: Металариец
Posts: 1,798
Releases: 4
On Forums: 8 years 4 months
Thanks: 363 time(s)
Unknown


Yeah that's it!

(IMG:style_emoticons/default/true_black.gif) (IMG:style_emoticons/default/true_black.gif) (IMG:style_emoticons/default/true_black.gif)
Go to the top of the page
  Insert nick Quick quote
+Quote Post
post Oct 1 2015, 05:36:35
Post #3

Два Литра
**
Group: Завсегдатай
Posts: 181
Releases: 0
On Forums: 11 years 1 month
Thanks: 19 time(s)
Ukraine


MERRIMACK2
Очень даже не плохо отдаёт местами ФИНАМИ!!! Даже на BANDCAMP написанно что играют FINNISH BLACK METAL !!! весьма достойно
Go to the top of the page
  Insert nick Quick quote
+Quote Post
post Oct 1 2015, 07:30:20
Post #4

Сектант технодро4чер
**************
Group: Металариец
Posts: 5,535
Releases: 143
From: Тимчасово окупована територія
On Forums: 11 years 10 months
Thanks: 5843 time(s)
Ukraine


Тэги с бэндкампа доставили: black metal metal power pop Montreal (IMG:style_emoticons/default/headcrab.png)
Go to the top of the page
  Insert nick Quick quote
+Quote Post
post Oct 24 2015, 23:07:26
Post #5

antithesis
**************
Group: Металариец
Posts: 3,118
Releases: 33
From: VRN
On Forums: 10 years 1 month
Thanks: 1927 time(s)
Russian Federation


хороший образец труёвого северного блэка.

да что там хороший. шедевр, мать его.. так ПО-ФИНСКИ даже не все финны рубят.
Go to the top of the page
  Insert nick Quick quote
+Quote Post
post Sep 5 2016, 06:09:10
Post #6

Три Литра
***
Group: Завсегдатай
Posts: 205
Releases: 0
On Forums: 6 years 8 months
Thanks: 4 time(s)
Afghanistan


Reupload please!
Go to the top of the page
  Insert nick Quick quote
+Quote Post
post Sep 5 2016, 10:00:24
Post #7

Правь статус, ####!111
**************
Group: Металариец
Posts: 8,293
Releases: 0
From: Москва
On Forums: 10 years 11 months
Thanks: 14742 time(s)
Russian Federation


Register
320


Thanks:
(1) Necromag,
Go to the top of the page
  Insert nick Quick quote
+Quote Post
post Nov 1 2018, 14:33:15
Post #8

Group: Дух
Posts: 2
Releases: 0
On Forums: 5 years 4 months
Thanks: 0 time(s)
Germany


Can somebody Reupload again please?
Go to the top of the page
  Insert nick Quick quote
+Quote Post
post Nov 1 2018, 14:58:21
Post #9

Правь статус, ####!111
**************
Group: Металариец
Posts: 46,725
Releases: 729
On Forums: 11 years 1 month
Thanks: 39359 time(s)
Russian Federation


@320

Register


Go to the top of the page
  Insert nick Quick quote
+Quote Post
post Nov 10 2019, 05:52:21
Post #10

aggresive exumator!
**********
Group: Металариец
Posts: 1,140
Releases: 0
On Forums: 8 years 9 months
Thanks: 42 time(s)
Unknown


reupload please
Go to the top of the page
  Insert nick Quick quote
+Quote Post
post Nov 10 2019, 07:23:34
Post #11

Group Icon
Group: S-moderation team
Posts: 15,685
Releases: 1440
From: Zagreb
On Forums: 9 years 4 months
Thanks: 70403 time(s)
Croatia


Register


Thanks:
Go to the top of the page
  Insert nick Quick quote
+Quote Post

Reply to this topicStart new topic
1 User(s) are reading this topic (1 Guests and 0 Anonymous Users)
0 Members:

 



- Lo-Fi Version Support form
Copyrights and abuse reports form
Time is now: 4th July 2020 - 06:30:39