Welcome Guest ( Log In | Register )

> И неформату есть предел.

Рэп/хип-хоп/шансон/поп удаляются. Для них есть свои порталы.

> Nytt Land - Hávamál (2015), Nordic Ritual Folk
post Jul 13 2015, 12:55:24
Post #1

 
********
Group: Металариец
Posts: 840
Releases: 87
On Forums: 12 years 1 week
Thanks: 2305 time(s)
Russian Federation


(IMG:http://metalarea.org/images/audiocovers/2015_Jul/acov_tid248839_thumb.jpg)

*Artist: Nytt Land
*Album: Hávamál
*Year: 2015
*Genre: Nordic Ritual Folk
*Country: Russian Federation (IMG:http://metalarea.org/forum/style_images/flags/Russian%20Federation.png)
*Format: mp3@CBR320kbps
*Size: 118MB

Tracklist:
1. Opnun 4:31
2. Gáttir Allar 6:05
3. Bú Er Betra 7:12
4. Ár Skal Rísa 6:23
5. Frysta 5:46
6. Þagalt Og Hugalt 7:16
7. Veit-a Hinn 5:41
8. Þat Er Þá Reynt 8:42
******************************
Total playing time: 51:36

Technical info
(IMG:http://metalarea.org/images/spectrogram/2015_Jul/5d208267d9f4cf9f18de4c5365af565e.png)
Input File: 01. Opnun.mp3
Channels : 2
Sample Rate : 44100
Precision : 16-bit
Duration : 00:04:31.21 = 11960141 samples = 20340.4 CDDA sectors
File Size : 10.9M
Bit Rate : 321k
Sample Encoding: MPEG audio (layer I, II or III)
Comments :
Title=Opnun
Artist=Nytt Land
Album=HГЎvamГЎl
Tracknumber=1/8
Year=2015-27-04
Genre=80



Register


Go to the top of the page
  Insert nick Quick quote
+Quote Post
 
Start new topic
Replies (1 - 3)
post Jul 15 2015, 09:44:46
Post #2

Мегаманьяк
***********
Group: Металариец
Posts: 1,569
Releases: 24
From: Spain
On Forums: 12 years 7 months
Thanks: 1246 time(s)
Spain


Register


Thanks:
Go to the top of the page
  Insert nick Quick quote
+Quote Post
post Jan 28 2020, 18:10:43
Post #3

Шесть Литров
******
Group: Металариец
Posts: 692
Releases: 10
On Forums: 11 years 3 months
Thanks: 162 time(s)
Germany


please, re-upload.
Go to the top of the page
  Insert nick Quick quote
+Quote Post
post Jan 28 2020, 18:21:10
Post #4

алкодзэн, шапка из фольги и пропитая троица
**************
Group: Металариец
Posts: 3,591
Releases: 0
On Forums: 4 years 2 months
Thanks: 2266 time(s)
Unknown


Register


Thanks:
(1) deathic,
Go to the top of the page
  Insert nick Quick quote
+Quote Post

Reply to this topicStart new topic
1 User(s) are reading this topic (1 Guests and 0 Anonymous Users)
0 Members:

 



- Lo-Fi Version Support form
Copyrights and abuse reports form
Time is now: 10th April 2020 - 07:44:38