Welcome Guest ( Log In | Register )

Объявления

* gmail.com упорно продолжает считать почту с нас "unsolicited" и отбивает в том числе и письма активации, поэтому просьба использовать альтернативные почтовые ящики.
------------
* gmail.com continues reject all mail from us as "unsolicited" (activation mails too) therefore please use alternate mail servers.
> Ancient Emblem & Hongo - Ancient Emblem/Hongo [split] (2015), Black Metal/Crust | Post-Metal/Sludge (D5)
Jacktheripper666
post Jul 15 2015, 13:03:28
Post #1

Guests team






(IMG:http://metalarea.org/images/audiocovers/2015_Jul/acov_tid248936_thumb.jpg)

*Artist: Ancient Emblem & Hongo
*Album: Ancient Emblem/Hongo [split]
*Year: 2015
*Genre: Black Metal/Crust | Post-Metal/Sludge
*Country: Spain (IMG:http://metalarea.org/forum/style_images/flags/Spain.png) | Spain (IMG:http://metalarea.org/forum/style_images/flags/Spain.png)
*Format: mp3@CBR320kbps
*Size: 73MB

Tracklist:
Ancient Emblem:
1. Fire worship 05:20
2. Sisters 10:38
Hongo:
3. Requiem 15:39
******************************
Total playing time: 31:37



Technical info
(IMG:http://metalarea.org/images/spectrogram/2015_Jul/e57c2a17aed13d6b29efef5901ed2f3e.png)
Input File: 01. Ancient Emblem - Fire Worship.mp3
Channels : 2
Sample Rate : 44100
Precision : 16-bit
Duration : 00:05:20.08 = 14115616 samples = 24006.1 CDDA sectors
File Size : 13.0M
Bit Rate : 325k
Sample Encoding: MPEG audio (layer I, II or III)
Comments :
Title=Fire Worship
Artist=Ancient Emblem
Album=Split
Tracknumber=01
Year=2015
Genre=Black Metal / Crust



Register


Go to the top of the page
  Insert nick Quick quote
+Quote Post
 
Start new topic
Replies (1 - 9)
post Aug 12 2015, 16:18:56
Post #2

Vana Peerukott
**************
Group: Металариец
Posts: 3,115
Releases: 239
From: Київ, Україна
On Forums: 18 years 3 months
Thanks: 3126 time(s)
Ukraine


(IMG:style_emoticons/default/spitggis0.gif)
Go to the top of the page
  Insert nick Quick quote
+Quote Post
post Jan 17 2023, 02:38:06
Post #3

Split Backup Copy
**************
Group: Металариец
Posts: 5,595
Releases: 243
From: с. Мизоново, Ишимский Район, Тюменская область
On Forums: 16 years 7 months
Thanks: 4138 time(s)
Russian Federation


Reupload please
Go to the top of the page
  Insert nick Quick quote
+Quote Post
post Apr 4 2023, 01:43:47
Post #4

Split Backup Copy
**************
Group: Металариец
Posts: 5,595
Releases: 243
From: с. Мизоново, Ишимский Район, Тюменская область
On Forums: 16 years 7 months
Thanks: 4138 time(s)
Russian Federation


Reupload please
Go to the top of the page
  Insert nick Quick quote
+Quote Post
post Jun 28 2023, 14:48:27
Post #5

Split Backup Copy
**************
Group: Металариец
Posts: 5,595
Releases: 243
From: с. Мизоново, Ишимский Район, Тюменская область
On Forums: 16 years 7 months
Thanks: 4138 time(s)
Russian Federation


Перезалейте, пожалуйста
Go to the top of the page
  Insert nick Quick quote
+Quote Post
post Sep 17 2023, 04:51:04
Post #6

Split Backup Copy
**************
Group: Металариец
Posts: 5,595
Releases: 243
From: с. Мизоново, Ишимский Район, Тюменская область
On Forums: 16 years 7 months
Thanks: 4138 time(s)
Russian Federation


Reupload please
Go to the top of the page
  Insert nick Quick quote
+Quote Post
post Sep 27 2023, 16:40:52
Post #7

Русский
********
Group: Металариец
Posts: 839
Releases: 0
From: Москва
On Forums: 17 years 10 months
Thanks: 265 time(s)
Russian Federation


name your price
Go to the top of the page
  Insert nick Quick quote
+Quote Post
post Sep 28 2023, 03:51:46
Post #8

Split Backup Copy
**************
Group: Металариец
Posts: 5,595
Releases: 243
From: с. Мизоново, Ишимский Район, Тюменская область
On Forums: 16 years 7 months
Thanks: 4138 time(s)
Russian Federation


Скачивается два трека, я бы хотел иметь возможность скачать и третий .
Go to the top of the page
  Insert nick Quick quote
+Quote Post
post Dec 8 2023, 14:20:55
Post #9

Split Backup Copy
**************
Group: Металариец
Posts: 5,595
Releases: 243
From: с. Мизоново, Ишимский Район, Тюменская область
On Forums: 16 years 7 months
Thanks: 4138 time(s)
Russian Federation


Перезалейте, пожалуйста
Go to the top of the page
  Insert nick Quick quote
+Quote Post
post Dec 8 2023, 22:42:46
Post #10

Русский
********
Group: Металариец
Posts: 839
Releases: 0
From: Москва
On Forums: 17 years 10 months
Thanks: 265 time(s)
Russian Federation


держи:

Register


Thanks:
Go to the top of the page
  Insert nick Quick quote
+Quote Post

Reply to this topicStart new topic
2 User(s) are reading this topic (2 Guests and 0 Anonymous Users)
0 Members:

 



- Lo-Fi Version Support form
Copyrights and abuse reports form
Time is now: 23rd July 2024 - 22:49:25