Welcome Guest ( Log In | Register )

> Solinaris - Deranged [ep] (2015), Avant-Garde/Progressive Technical Death Metal
post Jul 17 2015, 09:01:05
Post #1

Аннигилятор пивА
Group Icon
Group: V.I.P
Posts: 52,360
Releases: 16550
From: Koenigsberg - TILZIT
On Forums: 14 years 6 months
Thanks: 366592 time(s)
Russian Federation


(IMG:http://metalarea.org/images/audiocovers/2015_Jul/acov_tid249050_thumb.jpg)

*Artist: Solinaris
*Album: Deranged [ep]
*Year: 2015
*Genre: Avant-Garde/Progressive Technical Death Metal
*Country: Canada (IMG:http://metalarea.org/forum/style_images/flags/Canada.png)
*Format: mp3@CBR320kbps
*Size: 43MB

Tracklist:
1. Deranged 05:20
2. Phobopath 05:35
3. Field Of Trees 06:28
******************************
Total playing time: 17:23



Extended info
Eric Labrie: Vocals - Keys
Bernard Giroux - All acoustic guitars
Jean-Daniel Villeneuve - All electric, solos and electric clean guitar parts
Jonathan Piché: Bass
Lucas Biron - Drum

Guest musician: Alexandra Lacasse - Sax


Technical info
(IMG:http://metalarea.org/images/spectrogram/2015_Jul/64261359cc715eb5f2a2271d973a54cc.png)
Input File: Solinaris - Deranged - 01 Deranged.mp3
Channels : 2
Sample Rate : 44100
Precision : 16-bit
Duration : 00:05:20.84 = 14149000 samples = 24062.9 CDDA sectors
File Size : 13.1M
Bit Rate : 326k
Sample Encoding: MPEG audio (layer I, II or III)
Comments :
Title=Deranged
Artist=Solinaris
Album=Deranged
Tracknumber=1
Year=2015



Register


Go to the top of the page
  Insert nick Quick quote
+Quote Post
 
Start new topic
Replies (1 - 5)
post Jul 17 2015, 16:50:19
Post #2

Два Литра
**
Group: Завсегдатай
Posts: 159
Releases: 0
From: Somewhere Far Beyond
On Forums: 13 years 6 months
Thanks: 108 time(s)
Lithuania


Go to the top of the page
  Insert nick Quick quote
+Quote Post
post Jul 17 2015, 20:47:51
Post #3

Четыре Литра
****
Group: Металариец
Posts: 331
Releases: 12
From: N.Novgorod
On Forums: 10 years 10 months
Thanks: 272 time(s)
Russian Federation


хорошо
Go to the top of the page
  Insert nick Quick quote
+Quote Post
post Jul 19 2015, 07:43:04
Post #4

Аннигилятор пивА
Group Icon
Group: V.I.P
Posts: 52,360
Releases: 16550
From: Koenigsberg - TILZIT
On Forums: 14 years 6 months
Thanks: 366592 time(s)
Russian Federation


я бы сказал нехилая такая новая звезда на Канадском прог техникал дэт Олимпе, вернее очень качественная свежая кровь
Go to the top of the page
  Insert nick Quick quote
+Quote Post
post Sep 4 2015, 07:52:15
Post #5

Schuldinerist
**************
Group: Металариец
Posts: 10,961
Releases: 34
From:
On Forums: 13 years 7 months
Thanks: 7135 time(s)
Russian Federation


Последний трэк Field Of Trees с чистым (женским?) вокалом и жирным басом чудо как хорош (9/10), а первые два тянут конечно на определение "очень качественная свежая кровь", но не более того (7/10).
Go to the top of the page
  Insert nick Quick quote
+Quote Post
post Jun 22 2016, 13:03:25
Post #6

Schuldinerist
**************
Group: Металариец
Posts: 10,961
Releases: 34
From:
On Forums: 13 years 7 months
Thanks: 7135 time(s)
Russian Federation


Все три вещи вошли в одноименный лонгплей Solinaris - Deranged (2016)
Go to the top of the page
  Insert nick Quick quote
+Quote Post

Reply to this topicStart new topic
1 User(s) are reading this topic (1 Guests and 0 Anonymous Users)
0 Members:

 



- Lo-Fi Version Support form
Copyrights and abuse reports form
Time is now: 1st December 2020 - 19:27:46