Welcome Guest ( Log In | Register )

> 

Здесь релизы с живыми прямыми ссылками на lossless

> Orchid - Wizard Of War [ep] (2013), Doom/Heavy Metal/Occult Rock
post Jul 17 2015, 10:33:28
Post #1

Аннигилятор пивА
Group Icon
Group: V.I.P
Posts: 52,360
Releases: 16550
From: Koenigsberg - TILZIT
On Forums: 14 years 11 months
Thanks: 367515 time(s)
Russian Federation


(IMG:http://metalarea.org/images/audiocovers/2015_Jul/acov_tid249057_thumb.jpg)

*Artist: Orchid
*Album: Wizard Of War [ep]
*Year: 2013
*Genre: Doom/Heavy Metal/Occult Rock
*Country: United States (IMG:http://metalarea.org/forum/style_images/flags/United%20States.png)
*Format: mp3@CBR320kbps
*Size: 46MB

Tracklist:
1. Wizard of War 03:20
2. Demon's Eyes 04:03
3. Albatross 05:49
******************************
Total playing time: 13:12




Extended info
винил рип
Keith Nickel - Bass
Carter Kennedy - Drums
Mark Thomas Baker - Guitar, Moog Synthesizer
Theo Mindell - Vocals, Percussion


Technical info
(IMG:http://metalarea.org/images/spectrogram/2015_Jul/091ac750ec90940f0c6c3a2a489cc17d.png)
Input File: 01. Wizard of War.mp3
Channels : 2
Sample Rate : 44100
Precision : 16-bit
Duration : 00:03:18.61 = 8758701 samples = 14895.8 CDDA sectors
File Size : 7.95M
Bit Rate : 320k
Sample Encoding: MPEG audio (layer I, II or III)
Comments :
Title=Wizard of War
Artist=Orchid
Album=Wizard of War (EP)
Tracknumber=01/03
Year=2013
Genre=Doom Rock



Register


Go to the top of the page
  Insert nick Quick quote
+Quote Post
 
Start new topic
Replies (1 - 4)
post Jun 22 2017, 09:16:29
Post #2

Пять Литров
*****
Group: Металариец
Posts: 425
Releases: 0
From: Helvetia
On Forums: 13 years 1 month
Thanks: 124 time(s)
Russian Federation


Pls re-upp (IMG:style_emoticons/default/pray.gif)
Go to the top of the page
  Insert nick Quick quote
+Quote Post
post Jun 23 2017, 11:09:49
Post #3

Going home. Flying high.
**************
Group: Металариец
Posts: 13,269
Releases: 0
From: The Land of Shadows
On Forums: 14 years 8 months
Thanks: 26817 time(s)
Russian Federation


from the web
Register



Thanks:
Go to the top of the page
  Insert nick Quick quote
+Quote Post
post Apr 10 2021, 06:39:27
Post #4

Два Литра
**
Group: Завсегдатай
Posts: 167
Releases: 0
From: Russian Federation
On Forums: 14 years 8 months
Thanks: 3 time(s)
Russian Federation


Thank you very much, but unfortunately the link is no longer available (IMG:style_emoticons/default/6.gif)
Can anyone help?
Go to the top of the page
  Insert nick Quick quote
+Quote Post
post Apr 11 2021, 10:29:58
Post #5

Group Icon
Group: S-moderation team
Posts: 20,700
Releases: 1443
From: Zagreb
On Forums: 10 years 2 months
Thanks: 94889 time(s)
Croatia


Register
Register


Go to the top of the page
  Insert nick Quick quote
+Quote Post

Reply to this topicStart new topic
1 User(s) are reading this topic (1 Guests and 0 Anonymous Users)
0 Members:

 



- Lo-Fi Version Support form
Copyrights and abuse reports form
Time is now: 11th May 2021 - 08:28:13