Welcome Guest ( Log In | Register )

> The 135 - Lumen Per Lumen [ep] (2015), Black Metal
Jacktheripper666
post Jul 24 2015, 21:32:44
Post #1

Guests team






(IMG:http://metalarea.org/images/audiocovers/2015_Jul/acov_tid249481_thumb.jpg)

*Artist: The 135
*Album: Lumen Per Lumen [ep]
*Year: 2015
*Genre: Black Metal
*Country: France (IMG:http://metalarea.org/forum/style_images/flags/France.png)
*Format: mp3@CBR320kbps
*Size: 44MB

Tracklist:
1. Drakon Manifesto / Death of The I 07:05
2. We Are Legion 05:08
3. Draconis Scientia 07:12
******************************
Total playing time: 19:25



Extended info


Technical info
(IMG:http://metalarea.org/images/spectrogram/2015_Jul/4939e7a631e9bb2c06b50d473da69624.png)
Input File: 01. Drakon Manifesto - Death Of The I.mp3
Channels : 2
Sample Rate : 44100
Precision : 16-bit
Duration : 00:07:07.80 = 18865892 samples = 32084.9 CDDA sectors
File Size : 17.3M
Bit Rate : 324k
Sample Encoding: MPEG audio (layer I, II or III)
Comments :
Title=Drakon Manifesto - Death Of The I
Artist=The 135
Album=Lumen Per Lumen
Tracknumber=1
Year=2015
Genre=Black Metal



Register


Go to the top of the page
  Insert nick Quick quote
+Quote Post
 
Start new topic
Replies (1 - 4)
post Jul 25 2015, 10:38:20
Post #2

Два Литра
**
Group: Завсегдатай
Posts: 116
Releases: 0
From: Москва
On Forums: 16 years 10 months
Thanks: 21 time(s)
Russian Federation


Хорошая банда!


Thanks:
(1) NachtWulf,
Go to the top of the page
  Insert nick Quick quote
+Quote Post
post Jul 31 2015, 00:11:02
Post #3

De Mysteriis Dom Sathanas
**************
Group: Металариец
Posts: 4,491
Releases: 64
From: Doom
On Forums: 14 years 4 months
Thanks: 3903 time(s)
Russian Federation


Особенно вторая вещица ..прям обслушался! (IMG:style_emoticons/default/metaler.gif)
Go to the top of the page
  Insert nick Quick quote
+Quote Post
post Jan 18 2017, 16:59:25
Post #4

Шесть Литров
******
Group: Металариец
Posts: 612
Releases: 2
On Forums: 9 years 1 month
Thanks: 717 time(s)
Unknown


Could someone reupload please?
Go to the top of the page
  Insert nick Quick quote
+Quote Post
post Jan 29 2017, 09:06:31
Post #5

the faceless one
Group Icon
Group: S-moderation team
Posts: 9,567
Releases: 1973
On Forums: 14 years 3 months
Thanks: 121846 time(s)
Russian Federation


Reuploaded.
Register


Go to the top of the page
  Insert nick Quick quote
+Quote Post

Reply to this topicStart new topic
2 User(s) are reading this topic (2 Guests and 0 Anonymous Users)
0 Members:

 



- Lo-Fi Version Support form
Copyrights and abuse reports form
Time is now: 29th November 2022 - 12:14:27