Welcome Guest ( Log In | Register )

Объявления

* gmail.com упорно продолжает считать почту с нас "unsolicited" и отбивает в том числе и письма активации, поэтому просьба использовать альтернативные почтовые ящики.
------------
* gmail.com continues reject all mail from us as "unsolicited" (activation mails too) therefore please use alternate mail servers.
> One Master - Reclusive Blasphemy (2015), Black Metal
Jacktheripper666
post Jul 27 2015, 12:16:55
Post #1

Guests team






(IMG:http://metalarea.org/images/audiocovers/2015_Jul/acov_tid249597_thumb.jpg)

*Artist: One Master
*Album: Reclusive Blasphemy
*Year: 2015
*Genre: Black Metal
*Country: United States (IMG:http://metalarea.org/forum/style_images/flags/United%20States.png)
*Format: mp3@CBR320kbps
*Size: 85MB

Tracklist:
1. At the Hour of Saturn 07:28
2. A Cursed and Dismal Mind 08:49
3. Intolerance 05:43
4. Infernal Silence 07:32
5. Reclusive Blasphemy 06:37
******************************
Total playing time: 36:09



Technical info
(IMG:http://metalarea.org/images/spectrogram/2015_Jul/2896a6708428a905dd8f79fc7923a7dd.png)
Input File: 01. At the Hour of Saturn.mp3
Channels : 2
Sample Rate : 44100
Precision : 16-bit
Duration : 00:07:28.12 = 19762092 samples = 33609 CDDA sectors
File Size : 18.1M
Bit Rate : 323k
Sample Encoding: MPEG audio (layer I, II or III)
Comments :
Title=At the Hour of Saturn
Artist=One Master
Album=Reclusive Blasphemy
Tracknumber=1
Year=2015
Genre=Black Metal



Register


Go to the top of the page
  Insert nick Quick quote
+Quote Post
 
Start new topic
Replies (1 - 3)
post Jul 27 2015, 23:17:45
Post #2

Absorbence
**************
Group: Металариец
Posts: 2,588
Releases: 695
From: Vastland Abyss of Cthulhu
On Forums: 17 years 7 months
Thanks: 11643 time(s)
United States


thanks, nice
Go to the top of the page
  Insert nick Quick quote
+Quote Post
Kub
post Sep 20 2015, 17:13:23
Post #3

Guests team






офигительный альбом!
Go to the top of the page
  Insert nick Quick quote
+Quote Post
post Jul 10 2017, 07:08:59
Post #4

the faceless one
Group Icon
Group: S-moderation team
Posts: 9,607
Releases: 1979
On Forums: 15 years 10 months
Thanks: 124403 time(s)
Antarctica


Reuploaded.
Register


CD-Rip + Scans
Register


Go to the top of the page
  Insert nick Quick quote
+Quote Post

Reply to this topicStart new topic
1 User(s) are reading this topic (1 Guests and 0 Anonymous Users)
0 Members:

 



- Lo-Fi Version Support form
Copyrights and abuse reports form
Time is now: 17th June 2024 - 08:22:49