Welcome Guest ( Log In | Register )

> Harvest The Infection - Reassortment [ep] (2015), Progressive/Technical Death Metal
post Jul 29 2015, 17:01:57
Post #1

Аннигилятор пивА
Group Icon
Group: V.I.P
Posts: 52,360
Releases: 16551
From: Koenigsberg - TILZIT
On Forums: 13 years 8 months
Thanks: 363860 time(s)
Russian Federation


(IMG:https://metalarea.org/images/audiocovers/2015_Jul/acov_tid249682_thumb.jpg)

*Artist: Harvest The Infection
*Album: Reassortment [ep]
*Year: 2015
*Genre: Progressive/Technical Death Metal
*Country: Canada (IMG:https://metalarea.org/forum/style_images/flags/Canada.png)
*Format: mp3@CBR320kbps
*Size: 38MB

Tracklist:
1. Hard to Kill 04:09
2. Obsidian 05:17
3. Reassortment 00:56
4. Remnants 04:41
******************************
Total playing time: 15:03




Extended info
Круты пасаны, жесткие и интересные.
Influence: Gorod, Necrophagist, The Faceless, Revocation, Decapitated...

Chris Thorpe - Vocals
Jared Smith - Guitars (Civil Ruin)
Kyle Wagner - Guitars (Civil Ruin, ex-Gordred)
Paul Drummond - Drums (Civil Ruin, ex-Gordred)
James Butler-Grey - Bass


Technical info
(IMG:https://metalarea.org/images/spectrogram/2015_Jul/f7de542e0bcb524ef842e41ec0f557f3.png)
Input File: Harvest the Infection - Reassortment - 01 Hard to Kill.mp3
Channels : 2
Sample Rate : 44100
Precision : 16-bit
Duration : 00:04:09.70 = 11011946 samples = 18727.8 CDDA sectors
File Size : 10.2M
Bit Rate : 328k
Sample Encoding: MPEG audio (layer I, II or III)
Comments :
Title=Hard to Kill
Artist=Harvest the Infection
Album=Reassortment
Tracknumber=1
Year=2015



Register


Go to the top of the page
  Insert nick Quick quote
+Quote Post
 
Start new topic
Replies (1 - 8)
post Jul 30 2015, 00:31:25
Post #2
BAN
RO till
--



Напорище . Механика низших .Необычная подача вокала для техникала .. Свежая струя.
Go to the top of the page
  Insert nick Quick quote
+Quote Post
post Jul 30 2015, 19:33:17
Post #3

Шесть Литров
******
Group: Металариец
Posts: 525
Releases: 1
From: Тверская
On Forums: 12 years 8 months
Thanks: 263 time(s)
Russian Federation


Пожалуй заберу, вот бы ещё запись покачественнее ...
Go to the top of the page
  Insert nick Quick quote
+Quote Post
post Aug 13 2015, 14:03:52
Post #4

Schuldinerist
**************
Group: Металариец
Posts: 10,467
Releases: 33
From:
On Forums: 12 years 9 months
Thanks: 6619 time(s)
Russian Federation


Скоростной шквал с первой ноты. Продолжатели дела Brain Drill? Нет, уже в первом же трэке канадцы не держат этот убийственный темп и быстро сдуваются.
И по итогам всех 15 минут не более 7-8/10.
Go to the top of the page
  Insert nick Quick quote
+Quote Post
post Aug 13 2015, 14:15:58
Post #5

К = 8,29
**************
Group: Металариец
Posts: 6,201
Releases: 17
From: Минск
On Forums: 11 years 1 month
Thanks: 5538 time(s)
Belarus


ЦИТАТА(Язва @ 13th August 2015 - 16:03:52) *
Продолжатели дела Brain Drill?
Ага, кому интересно с этим пластмассовым днищем тягаться. От превью заторчал и уполз в уголок.
Go to the top of the page
  Insert nick Quick quote
+Quote Post
post Aug 13 2015, 15:20:46
Post #6

Schuldinerist
**************
Group: Металариец
Posts: 10,467
Releases: 33
From:
On Forums: 12 years 9 months
Thanks: 6619 time(s)
Russian Federation


Начало Hard to Kill очень многообещающее, но потом (IMG:style_emoticons/default/21.gif)
Go to the top of the page
  Insert nick Quick quote
+Quote Post
post Aug 13 2015, 15:31:44
Post #7

К = 8,29
**************
Group: Металариец
Posts: 6,201
Releases: 17
From: Минск
On Forums: 11 years 1 month
Thanks: 5538 time(s)
Belarus


ЦИТАТА(Язва @ 13th August 2015 - 17:20:46) *
но потом 21.gif
Т.е. «некрофагистовская» соляра тебе не вкатила?
Go to the top of the page
  Insert nick Quick quote
+Quote Post
post Aug 13 2015, 16:35:42
Post #8

Аннигилятор пивА
Group Icon
Group: V.I.P
Posts: 52,360
Releases: 16551
From: Koenigsberg - TILZIT
On Forums: 13 years 8 months
Thanks: 363860 time(s)
Russian Federation


ЦИТАТА(Язва @ Aug 13 2015, 14:20:46) *
Начало Hard to Kill очень многообещающее, но потом (IMG:style_emoticons/default/21.gif)

А по мне так потом как раз самое вкусное и пошло (IMG:style_emoticons/default/smile1.gif)
Go to the top of the page
  Insert nick Quick quote
+Quote Post
post Aug 14 2015, 13:23:29
Post #9

Schuldinerist
**************
Group: Металариец
Posts: 10,467
Releases: 33
From:
On Forums: 12 years 9 months
Thanks: 6619 time(s)
Russian Federation


ЦИТАТА(ddx1 @ Aug 13 2015, 17:31:44) *
Т.е. «некрофагистовская» соляра тебе не вкатила?

во втором трэке слабенькая
Go to the top of the page
  Insert nick Quick quote
+Quote Post

Reply to this topicStart new topic
1 User(s) are reading this topic (1 Guests and 0 Anonymous Users)
0 Members:

 



- Lo-Fi Version Support form
Copyrights and abuse reports form
Time is now: 29th January 2020 - 05:33:48