Welcome Guest ( Log In | Register )

> Conjuración Repugnante & Aiqëhahirit - Conjuración Repugnante/Aiqëhahirit [split] (2014), Black Metal/Noise | Raw Black Metal
Lion
post Aug 1 2015, 11:20:39
Post #1

Guests team






(IMG:https://metalarea.org/images/audiocovers/2015_Aug/acov_tid249808_thumb.jpg)

*Artist: Conjuración Repugnante & Aiqëhahirit
*Album: Conjuración Repugnante/Aiqëhahirit [split]
*Year: 2014
*Genre: Black Metal/Noise | Raw Black Metal
*Country: Netherlands (IMG:https://metalarea.org/forum/style_images/flags/Netherlands.png) | Bosnia and Herzegovina (IMG:https://metalarea.org/forum/style_images/flags/Bosnia%20and%20Herzegovina.png)
*Format: mp3@CBR320kbps
*Size: 75MB

Tracklist:
Conjuración Repugnante:
1. Un Grito Espectral Retumba Los Pasillos De Un Recuerdo Perturbante 04:29
2. El Destino Maquiavélico Del Emisario Quimérico 04:34
3. Una Sombra De Pesadilla Espanta Los Sueños Del Hereje 03:47
4. El Fantasma Putrefacto Nace De Las Profundidades Pantanales 02:21
Aiqëhahirit:
5. The Black Winds Of Holocaust 04:42
6. Rotten Chains Of Torture 06:30
7. To Live Is To Die A Horrible Death 05:06
******************************
Total playing time: 31:29

Technical info
(IMG:https://metalarea.org/images/spectrogram/2015_Aug/9615c83cac37700478f8088c69b441e8.png)
Input File: 1.Un Grito Espectral Retumba Los Pasillos De Un Recuerdo Perturbante.mp3
Channels : 2
Sample Rate : 44100
Precision : 16-bit
Duration : 00:04:29.22 = 11872602 samples = 20191.5 CDDA sectors
File Size : 11.0M
Bit Rate : 326k
Sample Encoding: MPEG audio (layer I, II or III)
Comments :
Title=Un Grito Espectral Retumba Los Pasillos De Un Recuerdo Perturbante
Artist=ConjuraciГіn Repugnante
Album=ConjuraciГіn Repugnante / AiqГ«hahirit
Tracknumber=1/7
Year=2014
Genre=Black Noise
Discnumber=1/1



Register


This post has been edited by Абигор: Aug 1 2015, 11:26:12


Go to the top of the page
  Insert nick Quick quote
+Quote Post
 
Start new topic
Replies (1 - 5)
post Oct 20 2015, 23:54:07
Post #2

Два Литра
**
Group: Завсегдатай
Posts: 142
Releases: 0
From: Marapi
On Forums: 8 years 7 months
Thanks: 8 time(s)
Indonesia


re up please
Go to the top of the page
  Insert nick Quick quote
+Quote Post
post Apr 4 2016, 05:33:55
Post #3

Split Backup Copy
**************
Group: Металариец
Posts: 5,383
Releases: 243
From: с. Мизоново, Ишимский Район, Тюменская область
On Forums: 13 years 11 months
Thanks: 3815 time(s)
Russian Federation


Перезалейте, пожалуйста.
Go to the top of the page
  Insert nick Quick quote
+Quote Post
post May 2 2016, 11:32:15
Post #4

Правь статус, ####!111
**************
Group: Металариец
Posts: 2,796
Releases: 18
From: Eternal darkness
On Forums: 14 years 1 month
Thanks: 7811 time(s)
Russian Federation


Register


Go to the top of the page
  Insert nick Quick quote
+Quote Post
post Feb 26 2017, 14:11:48
Post #5

the faceless one
Group Icon
Group: S-moderation team
Posts: 9,493
Releases: 1965
On Forums: 13 years 3 months
Thanks: 119786 time(s)
Russian Federation


Эксгумировал.
Register


Go to the top of the page
  Insert nick Quick quote
+Quote Post
post Feb 26 2017, 14:14:57
Post #6

Три Литра
***
Group: Завсегдатай
Posts: 230
Releases: 0
From: GREAT TARTARIA
On Forums: 10 years 10 months
Thanks: 91 time(s)
Unknown


Абигору мегапрэй!!


Thanks:
Go to the top of the page
  Insert nick Quick quote
+Quote Post

Reply to this topicStart new topic
2 User(s) are reading this topic (2 Guests and 0 Anonymous Users)
0 Members:

 



- Lo-Fi Version Support form
Copyrights and abuse reports form
Time is now: 3rd December 2021 - 05:58:59