Welcome Guest ( Log In | Register )

> Judas Avenger - Judas Avenger (2015), Heavy Metal
Lion
post Aug 9 2015, 12:01:07
Post #1

Guests team






(IMG:https://metalarea.org/images/audiocovers/2015_Aug/acov_tid250263_thumb.jpg)

*Artist: Judas Avenger
*Album: Judas Avenger
*Year: 2015
*Genre: Heavy Metal
*Country: Finland (IMG:https://metalarea.org/forum/style_images/flags/Finland.png)
*Format: mp3@CBR320kbps
*Size: 73MB

Tracklist:
1. Judas Avenger 05:35
2. Hell Nation 04:28
3. Empire of Dust 05:22
4. Dying Wish 04:15
5. Night of the Banshee 05:47
6. Divine Darkness 06:17
******************************
Total playing time: 31:44

Technical info
(IMG:https://metalarea.org/images/spectrogram/2015_Aug/21f75250a790c72628399a0b17d79cec.png)
Input File: 01 Judas Avenger.mp3
Channels : 2
Sample Rate : 44100
Precision : 16-bit
Duration : 00:05:36.13 = 14823157 samples = 25209.5 CDDA sectors
File Size : 13.5M
Bit Rate : 320k
Sample Encoding: MPEG audio (layer I, II or III)
Comments :
Title=Judas Avenger
Artist=Judas Avenger
Album=Judas Avenger [EP]
Tracknumber=01/06
Year=2015
Genre=Metal
Discnumber=1/1



Register


Go to the top of the page
  Insert nick Quick quote
+Quote Post
 
Start new topic
Replies (1 - 4)
post Aug 9 2015, 15:48:31
Post #2

Три Литра
***
Group: Завсегдатай
Posts: 247
Releases: 0
From: Odessa
On Forums: 16 years 1 month
Thanks: 53 time(s)
Ukraine


Вторично и пресно.
https://www.youtube.com/watch?v=ilfE5OXVHW0


Thanks:
Go to the top of the page
  Insert nick Quick quote
+Quote Post
post Aug 11 2015, 13:46:36
Post #3

hearer & reader
**************
Group: Металариец
Posts: 10,853
Releases: 232
From: Moscow
On Forums: 16 years 5 months
Thanks: 13534 time(s)
Russian Federation


Скорее, третично. Зачем вообще - непонятно.
Go to the top of the page
  Insert nick Quick quote
+Quote Post
post Aug 11 2015, 15:08:43
Post #4

Join my religion, or die
**************
Group: Металариец
Posts: 11,335
Releases: 1956
From: Питера
On Forums: 14 years 4 months
Thanks: 25886 time(s)
Russian Federation


Это пародия на позднего Хетфилда,
ну по вокалу естественно... (IMG:style_emoticons/default/15.gif)
Go to the top of the page
  Insert nick Quick quote
+Quote Post
post Aug 30 2015, 19:59:26
Post #5

Правь статус, ####!111
**************
Group: Металариец
Posts: 55,380
Releases: 1153
On Forums: 14 years 8 months
Thanks: 53766 time(s)
Russian Federation


А мне всё понравилось - да, влияние Хэтфилда чувствуется, но сделано всё с душой и грамотно. Очень понравилась атмосфера данного альбома - мрачная и таинственная, необычная. В общем, рекомендации. Материал драйвовый и убойный.
Go to the top of the page
  Insert nick Quick quote
+Quote Post

Reply to this topicStart new topic
2 User(s) are reading this topic (2 Guests and 0 Anonymous Users)
0 Members:

 



- Lo-Fi Version Support form
Copyrights and abuse reports form
Time is now: 22nd February 2024 - 14:29:31